.
Авторизация | Регистрация
Хочешь лучшие торренты? Добавь свой email!
Добавить
» » Похитители / Les Kidnappeurs (1998) DVDRip от New-Team | P скачать через торрент бесплатно




    Похитители / Les Kidnappeurs (1998) DVDRip от New-Team | P скачать через торрент бесплатно

    Опубликовал: Админ | Дата: 27-02-2015, 11:10 | Просмотров: 197


    Снималось в: Франция
    Создали в: Canal+ fr, Gimages, Les Productions du Champ Poirier, M6 Films, Sofinergie Films, Studio Images 5

    Категория жанра: боевик, комедия, криминал
    Создали в: 1998
    Время просмотра: 01:36:15

    Перевод текста: Профессиональный (многоголосый, закадровый)
    Оригинальная аудиодорожка: нет
    Субтитры подготовлены: нет

    Главный режиссер: Грэм Гюи / Graham Guit

    Актеры:
    Ромен Дюри, Мельвиль Пупо, Элоди Буше, Айзек Шарри, Эли Каку, Элен Фийере, Патрик Лизана, Саша Бурдо, Ришар Шевалье, Клиффорд Энди...

    Сюжет:
    Профессиональный взломщик сейфов Арман, вышедший из тюрьмы и заставший любимую девушку в постели с другим мужчиной… Беззаботная Клэр, перед которой не устоит ни одна система безопасности… Охваченный депрессией Зеро, помешанный на автомобилях… Мелкий жулик Улисс, зацикленный на оружии… Они не должны были доверять друг другу и вместе идти на дело. И все же, сколотив крутую банду, они замышляют совершить самое плевое ограбление века. То, что им удалось похитить, превзошло все возможные ожидания. Одна беда — их добыча оказалась нужна слишком многим. Легкое дельце оборачивается большими неприятностями…



    Исходник: DVD5 R5
    Тип релиза: DVDRip
    Контейнер: AVI

    Информация о видео: 704x304 (2,35:1), 25,000 fps, XviD ~ 945 kbps avg, 0.177 bit/pixel
    Информация о звуке: 48 kHz, MP3 2.0, 128 kbps

    Раздача от:
    MediaInfo

    Общее
    Полное имя : Pohititeli.1998.DVDRip-745_New-team_by_AVP_Studio.avi
    Формат : AVI
    Формат/Информация : Audio Video Interleave
    Размер файла : 745 Мбайт
    Продолжительность : 1 ч. 36 м.
    Общий поток : 1082 Кбит/сек
    Программа кодирования : VirtualDubModRus 1.5.10.2 (build 2542/release)
    Библиотека кодирования : VirtualDubMod build 2542/release

    Видео
    Идентификатор : 0
    Формат : MPEG-4 Visual
    Профиль формата : Advanced Simple@L5
    Параметр BVOP формата : 1
    Параметр QPel формата : Нет
    Параметр GMC формата : Без точки перехода
    Параметр матрицы формата : Выборочная
    Идентификатор кодека : XVID
    Идентификатор кодека/Подсказка : XviD
    Продолжительность : 1 ч. 36 м.
    Битрейт : 945 Кбит/сек
    Ширина : 704 пикселя
    Высота : 304 пикселя
    Соотношение сторон : 2,35:1
    Частота кадров : 25,000 кадров/сек
    Цветовое пространство : YUV
    Субдискретизация насыщенности : 4:2:0
    Битовая глубина : 8 бит
    Тип развёртки : Прогрессивная
    Метод сжатия : С потерями
    Бит/(Пиксели*Кадры) : 0.177
    Размер потока : 650 Мбайт (87%)
    Библиотека кодирования : XviD 73

    Аудио
    Идентификатор : 1
    Формат : MPEG Audio
    Версия формата : Version 1
    Профиль формата : Layer 3
    Идентификатор кодека : 55
    Идентификатор кодека/Подсказка : MP3
    Продолжительность : 1 ч. 36 м.
    Вид битрейта : Постоянный
    Битрейт : 128 Кбит/сек
    Каналы : 2 канала
    Частота : 48,0 КГц
    Метод сжатия : С потерями
    Размер потока : 88,1 Мбайт (12%)
    Выравнивание : Соединение по промежуткам
    Продолжительность промежутка : 40 мс. (1,00 видеокадр)
    Время предзагрузки промежутка : 504 мс.
    Библиотека кодирования : LAME3.99r
    Залил: AVPStudio
    Размер скачиваемого торрента: 745.26 MB (781461504 Bytes)


    Похитители / Les Kidnappeurs (1998) DVDRip от New-Team | P скачать через торрент бесплатно
    загрузка...
    Рейтинг →
     (голосов: 1, оценка 4/5, голосовать можно 1 раз )

    Другие торренты по теме:

  • Похитители тел / Body Snatchers (1993) DVDRip | D A
  • Похитители велосипедов / Ladri di biciclette (1948) BDRip-AVC от ~ F-Torrents ~
  • Похитители лбов / Trail of the Screaming Forehead (2007) HDTVRip | P2
  • Похитители / Les Kidnappeurs (1998) DVDRip от New-Team | P
  • Похитители тел / Body Snatchers (1993) BDRip от Koenig | D, P, P2
  • Том Хилленбранд - Охота за темным эликсиром. Похитители кофе (2016) FB2


    • Комментарии (0):

      Информация

      Информация

        Посетители, находящиеся в группе Гости, не могут оставлять комментарии в данной новости.

        ↓ Меню



        ↓ Опрос

        А Вы добавили сайт в закладки?
        Да
        Не


        Top 10 за месяц (Фильмы)