.
Авторизация | Регистрация
Хочешь лучшие торренты? Добавь свой email!
Добавить
» » Дуэль под солнцем / Duel in the Sun (1946) DVD-9 скачать через торрент бесплатно




    Дуэль под солнцем / Duel in the Sun (1946) DVD-9 скачать через торрент бесплатно

    Опубликовал: Админ | Дата: 27-02-2015, 11:10 | Просмотров: 235







    Детально о кино
    Русское название: Дуэль под солнцем
    Русское название в мировом прокате: Duel in the Sun
    Создали в: 1946
    Категория жанра: Вестерн
    Главный режиссер: Кинг Видор, Отто Броуер, Уильям Дитерле, Сидни Франклин, Уильям Кэмерон Мензиес, Джозеф фон Штернберг, Дэвид О. Селзник
    Актеры: Грегори Пек, Дженнифер Джонс, Джозеф Коттен, Лайонел Бэрримор, Херберт Маршалл, Лиллиан Гиш, Уолтер Хьюстон, Чарльз Бикфорд, Гарри Кэри, Джоан Тетзел, Тилли Лош, Баттерфлай МакКуин, Отто Крюгер

    Сюжет фильма: Приговоренный к смертной казни за убийство жены Чавез отсылает свою дочь Перл к родственникам в Техас. На огромном ранчо Макканлесс девушка знакомится со своими двоюродными братьями Левтом и Джесси, которые сразу влюбляются в нее. Ловкий и крепкий объездчик лошадей и покоритель женщин Левт очень скоро соблазняет Перл, однако он не собирается жениться на девушке. Второй влюбленный кузен - Джесси, женившийся по расчету на другой, настолько увлечен красавицей Перл, что просит ее поселиться в его доме вместе с ним и его молодой женой. Напряженность отношений в любовном треугольнике достигает кульминации, когда доведенная до отчаяния девушка берется за карабин...



    Снималось в: США
    Киностудия: The Selznick Studio, Vanguard Films
    Время просмотра: 02:24:11
    Перевод текста: Профессиональный многоголосый
    Субтитры: Русские

    Файл
    Кодек для видео: MPEG-2
    Качество фильма: DVD-9
    Информация о видео: NTSC 4:3 (720x480) VBR
    Информация о звуке: Русский, английский (Dolby AC3, 2 ch)

    Меню
    DVDInfo
    Title: Локальный диск
    Size: 6.49 Gb ( 6 802 250 KBytes ) - DVD-9
    Enabled regions: 1, 2, 3, 4, 5, 6, 7, 8

    VTS_01 :
    Play Length: 00:00:37
    Video: NTSC 4:3 (720x480) VBR
    Audio:
    Russian (Dolby AC3, 2 ch)

    VTS_02 :
    Play Length: 02:24:11
    Video: NTSC 4:3 (720x480) VBR
    Audio:
    Russian (Dolby AC3, 2 ch)
    English (Dolby AC3, 2 ch)
    Subtitles:
    Russian
    English

    VTS_03 :
    Play Length: 00:00:41+00:00:31+00:00:33+00:00:32+00:00:30+00:00:34
    Video: NTSC 4:3 (720x480) VBR
    Audio:
    Russian (Dolby AC3, 2 ch)

    Menu Video:
    NTSC 4:3 (720x480) VBR
    Menu Subtitles:
    Not specified
    Menu Russian Language Unit :
    Root Menu
    Chapter (PTT) Menu
    Subpicture Menu
    Audio Menu
    Angle menu


    MediaInfo
    Общее
    Полное имя : D:1АААduel_pod_solncem_DVD9_by_bm11VIDEO_TSVTS_02_1.VOB
    Формат : MPEG-PS
    Размер файла : 1023 Мбайт
    Продолжительность : 25 м.
    Режим общего битрейта : Переменный
    Общий поток : 5575 Кбит/сек

    Видео
    Идентификатор : 224 (0xE0)
    Формат : MPEG Video
    Версия формата : Version 2
    Профиль формата : Main@Main
    Параметр BVOP формата : Да
    Параметр матрицы формата : Выборочная
    Параметр GOP формата : M=3, N=12
    Продолжительность : 25 м.
    Вид битрейта : Переменный
    Битрейт : 5080 Кбит/сек
    Максимальный битрейт : 800 Кбит/сек
    Ширина : 720 пикселей
    Высота : 480 пикселей
    Соотношение сторон : 4:3
    Частота кадров : 29,970 кадров/сек
    Стандарт вещания : NTSC
    Цветовое пространство : YUV
    Субдискретизация насыщенности : 4:2:0
    Битовая глубина : 8 бит
    Метод сжатия : С потерями
    Бит/(Пиксели*Кадры) : 0.490
    Размер потока : 933 Мбайт (91%)

    Аудио #1
    Идентификатор : 189 (0xBD)-128 (0x80)
    Формат : AC-3
    Формат/Информация : Audio Coding 3
    Расширение режима : CM (complete main)
    Параметр Endianness формата : Big
    Режим смешивания : DVD-Video
    Продолжительность : 25 м.
    Вид битрейта : Постоянный
    Битрейт : 192 Кбит/сек
    Каналы : 2 канала
    Расположение каналов : Front: L R
    Частота : 48,0 КГц
    Битовая глубина : 16 бит
    Метод сжатия : С потерями
    Размер потока : 35,2 Мбайт (3%)

    Аудио #2
    Идентификатор : 189 (0xBD)-129 (0x81)
    Формат : AC-3
    Формат/Информация : Audio Coding 3
    Расширение режима : CM (complete main)
    Параметр Endianness формата : Big
    Режим смешивания : DVD-Video
    Продолжительность : 25 м.
    Вид битрейта : Постоянный
    Битрейт : 192 Кбит/сек
    Каналы : 2 канала
    Расположение каналов : Front: L R
    Частота : 48,0 КГц
    Битовая глубина : 16 бит
    Метод сжатия : С потерями
    Размер потока : 35,2 Мбайт (3%)

    Текст #1
    Идентификатор : 189 (0xBD)-32 (0x20)
    Формат : RLE
    Формат/Информация : Run-length encoding
    Режим смешивания : DVD-Video
    Продолжительность : 25 м.
    Задержка видео : 17 с.

    Текст #2
    Идентификатор : 224 (0xE0)-CC3
    Формат : EIA-608
    Режим смешивания, доп. информация : Muxed in Video #1
    Вид битрейта : Постоянный
    Размер потока : 0,00 байт (0%)

    Текст #3
    Идентификатор : 189 (0xBD)-33 (0x21)
    Формат : RLE
    Формат/Информация : Run-length encoding
    Режим смешивания : DVD-Video

    Меню


    Скриншоты для ознакомления

    Залил: YArl
    Размер скачиваемого торрента: 6.49 GB (6965504000 Bytes)

    Дуэль под солнцем / Duel in the Sun (1946) DVD-9 скачать через торрент бесплатно
    загрузка...
    Рейтинг →
     (голосов: 1, оценка 3/5, голосовать можно 1 раз )

    Другие торренты по теме:

  • Дуэль до смерти / Xian si jue (1983) DVDRip От ikusha76
  • Самурай 2: Дуэль у храма / Zoku Miyamoto Musashi: Ichijji no kett / Samurai II: Duel at Ichijoji Temple (1955) BDRip 720p
  • Тихая дуэль / Shizukanaru ketto (1949) DVDRip от egoleshik | P
  • Дуэль / The Duel / Kuet chin chi gam ji din (2000) HDRip от RG Orient Extreme | P2
  • Дуэль / Duel (1971) HDRip | 2xP, A
  • Дуэль / Duel (1971) BDRip 720p от NNNB | P, A скачать через торрент бесплатно
  • Дуэль / Duel (1971) BDRip от HQCLUB скачать через торрент бесплатно
  • Дуэль / Duel скачать через торрент бесплатно


    • Комментарии (0):

      Информация

      Информация

        Посетители, находящиеся в группе Гости, не могут оставлять комментарии в данной новости.

        ↓ Меню



        ↓ Опрос

        А Вы добавили сайт в закладки?
        Да
        Не


        Top 10 за месяц (Фильмы)