.
Авторизация | Регистрация
Хочешь лучшие торренты? Добавь свой email!
Добавить
» » Ошибки прошлого / Исправлять ошибки / Rectify (2014) WEB-DL 720p от MediaClub | To4kaTV скачать торрент бесплатно




    Ошибки прошлого / Исправлять ошибки / Rectify (2014) WEB-DL 720p от MediaClub | To4kaTV скачать торрент бесплатно

    Опубликовал: Админ | Дата: 27-02-2015, 11:10 | Просмотров: 208



    Детально о кино
    Русское название: Ошибки прошлого / Исправлять ошибки
    Русское название в мировом прокате: Rectify
    Создали в: 2014
    Категория жанра: Драма
    Главный режиссер: Билл Джирхарт, Кит Гордон, Николь Кэссел
    Актеры: Аден Янг, Дж. Смит-Камерон, Клейн Кроуфорд, Люк Кирби, Джейк Остин Уолкер, Майкл О’Нил, Ким Уолл, Эбигейл Спенсер, Эделейд Клеменс, Брюс МакКиннон

    Сюжет фильма: Проведя 19 лет в камере смертников за изнасилование и убийство своей 16-летней девушки, Дэниел Холден возвращается домой. Его приговор был отменен из-за возникновения новых доказательств ДНК. Проведя большую часть сознательной жизни в ожидании смерти, Дэниел должен теперь заново научиться жить.



    Снималось в: США
    Киностудия: Gran Via, Zip Works
    Время просмотра: ~ 00:45:00
    Перевод текста: Любительский многоголосый

    Файл
    Кодек для видео: MPEG-4 AVC
    Качество фильма: WEB-DL 720p
    Информация о видео: 4000 Кбит/с, 1280x718, 23.976 кадр/с
    Информация о звуке:
    Аудио #1: Русский (AC3, 2 ch, 192 Кбит/с) / Любительский многоголосый (To4kaTV)
    Аудио #2: Английский (AC3, 6 ch, 384 Кбит/с)
    Субтитры: Русские, английские

    MI

    Общее
    Уникальный идентификатор : 215434404705799946849561319974388899491 (0xA2132838310477C8B5C568FF23AC1EA3)
    Полное имя : D:В планахСериалы MediaClubIspravljat;.oshibki.(Oshibki.proshlogo).(2.sezon).2014.x264.WEB-DL.720p_MediaClubIspravljat;.oshibki.(Oshibki.proshlogo).(2.sezon.01.seriya.iz.10).2014.x264.WEB-DL.720p_MediaClub.mkv
    Формат : Matroska
    Версия формата : Version 4 / Version 2
    Размер файла : 1,56 Гбайт
    Продолжительность : 46 м.
    Общий поток : 4846 Кбит/сек
    Название фильма : ReJIiZ MediaClub by BenderBEST
    Дата кодирования : UTC 2014-06-27 13:55:51
    Программа кодирования : mkvmerge v6.9.1 (;Blue Panther;) 64bit built on Apr 18 2014 18:23:38
    Библиотека кодирования : libebml v1.3.0 + libmatroska v1.4.1

    Видео
    Идентификатор : 1
    Формат : AVC
    Формат/Информация : Advanced Video Codec
    Профиль формата : High@L3.1
    Параметр CABAC формата : Нет
    Параметр ReFrames формата : 2 кадра
    Идентификатор кодека : V_MPEG4/ISO/AVC
    Продолжительность : 46 м.
    Битрейт : 4174 Кбит/сек
    Ширина : 1280 пикселей
    Высота : 718 пикселей
    Соотношение сторон : 16:9
    Режим частоты кадров : Постоянный
    Частота кадров : 23,976 кадра/сек
    Цветовое пространство : YUV
    Субдискретизация насыщенности : 4:2:0
    Битовая глубина : 8 бит
    Тип развёртки : Прогрессивная
    Бит/(Пиксели*Кадры) : 0.189
    Размер потока : 1,35 Гбайт (86%)
    Язык : English
    Default : Да
    Forced : Нет
    Основные цвета : BT.709
    Характеристики трансфера : BT.709
    Коэффициенты матрицы : BT.709

    Аудио #1
    Идентификатор : 2
    Формат : AC-3
    Формат/Информация : Audio Coding 3
    Расширение режима : CM (complete main)
    Параметр Endianness формата : Big
    Идентификатор кодека : A_AC3
    Продолжительность : 46 м.
    Вид битрейта : Постоянный
    Битрейт : 192 Кбит/сек
    Каналы : 2 канала
    Расположение каналов : Front: L R
    Частота : 48,0 КГц
    Битовая глубина : 16 бит
    Метод сжатия : С потерями
    Размер потока : 63,4 Мбайт (4%)
    Заголовок : To4kaTV
    Язык : Russian
    Default : Да
    Forced : Нет

    Аудио #2
    Идентификатор : 3
    Формат : AC-3
    Формат/Информация : Audio Coding 3
    Расширение режима : CM (complete main)
    Параметр Endianness формата : Big
    Идентификатор кодека : A_AC3
    Продолжительность : 46 м.
    Вид битрейта : Постоянный
    Битрейт : 384 Кбит/сек
    Каналы : 6 каналов
    Расположение каналов : Front: L C R, Side: L R, LFE
    Частота : 48,0 КГц
    Битовая глубина : 16 бит
    Метод сжатия : С потерями
    Размер потока : 127 Мбайт (8%)
    Язык : English
    Default : Нет
    Forced : Нет

    Текст #1
    Идентификатор : 4
    Формат : UTF-8
    Идентификатор кодека : S_TEXT/UTF8
    Идентификатор кодека/Информация : UTF-8 Plain Text
    Язык : Russian
    Default : Нет
    Forced : Нет

    Текст #2
    Идентификатор : 5
    Формат : UTF-8
    Идентификатор кодека : S_TEXT/UTF8
    Идентификатор кодека/Информация : UTF-8 Plain Text
    Язык : English
    Default : Да
    Forced : Нет


    Скриншоты для ознакомления





    Релиз подготовил:
    Залил: gardeyka222
    Размер скачиваемого торрента: 1.56 GB (1677382616 Bytes)

    Ошибки прошлого / Исправлять ошибки / Rectify (2014) WEB-DL 720p от MediaClub | To4kaTV торрент скачать бесплатно
    загрузка...
    Рейтинг →
     (голосов: 1, оценка 3/5, голосовать можно 1 раз )

    Другие торренты по теме:

  • Ошибки прошлого / Rectify (2013) WEB-DL 720p
  • Ошибки прошлого / Rectify
  • Ошибки прошлого / Rectify (2013) HDRip | To4ka
  • Ошибки прошлого / Rectify (2015) HDRip | To4ka


    • Комментарии (0):

      Информация

      Информация

        Посетители, находящиеся в группе Гости, не могут оставлять комментарии в данной новости.

        ↓ Меню



        ↓ Опрос

        А Вы добавили сайт в закладки?
        Да
        Не


        Top 10 за месяц (Фильмы)