.
Авторизация | Регистрация
Хочешь лучшие торренты? Добавь свой email!
Добавить
» » Живи для меня / Jeena Sirf Merre Liye (2002) DVDRip скачать торрент бесплатно




    Живи для меня / Jeena Sirf Merre Liye (2002) DVDRip скачать торрент бесплатно

    Опубликовал: Админ | Дата: 27-02-2015, 11:10 | Просмотров: 189



    Русское название: Живи для меня
    Русское название в мировом прокате: Jeena Sirf Merre Liye
    Создали в: 2002
    Категория жанра: Мелодрама
    Главный режиссер: Талат Яни
    Актеры: Карина Капур, Тусшар Капур, Маллика Шерават, Кадер Кхан, Алок Натх, Виджаендра Гхатге, Сатиш Шах, Химани Шивпури

    Сюжет: Разлученные в детстве Каран (Тусшар Капур) и Пуджа (Карина Капур) проносят свою любовь через многие годы. Все это время они безуспешно пытаются разыскать друг друга, а когда находят, то вынуждены отказаться от продолжения отношений во имя благополучия родных...

    Снималось в: Индия, Puja Films
    Время просмотра: 02:26:26
    Перевод текста: Профессиональный многоголосый

    Качество фильма: DVDRip
    Информация о видео: DivX, 1550 Кбит/с, 704x304
    Информация о звуке rus: AC3, 6 ch, 448 Кбит/с

    Инфо
    Полное имя : Zhivi.Dlja.Menja.2002.DivX.DVDRip.Kinozal.Tv.avi
    Формат : AVI
    Описание формата : Audio Video Interleave
    Профиль формата : OpenDML
    Размер файла : 2.05 Гб
    Длительность : 2ч 25мин
    Общий битрейт : 2 008 кбит/сек
    Програмное обеспечение : VirtualDubMod 1.5.10.2 (build 2540/release)
    Кодирующая библиотека : VirtualDubMod build 2540/release

    === Видео ===
    ID (Идентификатор) : 0
    Формат : MPEG-4 Visual
    Параметр ;BVOP; : 1
    Параметр ;QPel; : Нет
    Параметр ;GMC; : No warppoints
    Параметр ;Matrix; : Default (H.263)
    Muxing mode : Packed bitstream
    Идентификатор кодека : DX50
    Подпись кодека : DivX 5
    Длительность : 2ч 25мин
    Битрейт : 1 550 кбит/сек
    Ширина кадра : 704 пикселей
    Высота кадра : 304 пикселей
    Соотношение сторон : 2.35:1
    Частота кадров : 23.976 кадров/сек
    Цветовое пространство : YUV
    Субдискретизация насыщенности : 4:2:0
    Глубина (разрядность) : 8 bits
    Тип развертки : Прогрессивная
    Режим сжатия : С потерями
    Бит/(пиксель*кадр) : 0.302
    Размер потока : 1.58 Гб (77%)
    Кодирующая библиотека : DivX 6.1.1 (UTC 2006-02-01)

    === Аудио ===
    ID (Идентификатор) : 1
    Формат : AC-3
    Описание формата : Audio Coding 3
    Mode extension : CM (complete main)
    Идентификатор кодека : 2000
    Длительность : 2ч 25мин
    Тип битрейта : Постоянный
    Битрейт : 448 кбит/сек
    Канал(ы) : 6 каналов
    Расположение каналов : Front: L C R, Side: L R, LFE
    Частота дискретизации : 48.0 кГц
    Глубина (разрядность) : 16 bits
    Режим сжатия : С потерями
    Задержка по отношению к видео : 18ms
    Размер потока : 466 Мб (22%)
    Расположение потока : Split accross interleaves
    Период чередования : 42 мс (1.00 video frame)
    Предварительная загрузка : 500 мс




    Размер скачиваемого торрента: 2.05 GB (2198437888 Bytes)

    Живи для меня / Jeena Sirf Merre Liye (2002) DVDRip торрент скачать бесплатно
    загрузка...
    Рейтинг →
     (голосов: 1, оценка 3/5, голосовать можно 1 раз )

    Другие торренты по теме:

  • Сборник - Для братвы. Живи и знай (2013) МР3


    • Комментарии (0):

      Информация

      Информация

        Посетители, находящиеся в группе Гости, не могут оставлять комментарии в данной новости.

        ↓ Меню



        ↓ Опрос

        А Вы добавили сайт в закладки?
        Да
        Не


        Top 10 за месяц (Фильмы)