.
Авторизация | Регистрация
Хочешь лучшие торренты? Добавь свой email!
Добавить
» » Секреты прошлого / Le passй (2013) BDRip-AVC | iPad | P | iTunes скачать через торрент бесплатно




    Секреты прошлого / Le passй (2013) BDRip-AVC | iPad | P | iTunes скачать через торрент бесплатно

    Опубликовал: Админ | Дата: 27-02-2015, 11:10 | Просмотров: 177



    Секреты прошлого / Le passй (2013) BDRip-AVC | iPad | P | iTunes


    Русское название: Секреты прошлого
    Русское название в мировом прокате: Le passй
    Создали в: 2013
    Категория жанра: драма, детектив
    Главный режиссер: Асгар Фархади
    Актеры: Беренис Бежо, Тахар Рахим, Али Мосаффа, Полин Бурле, Элиэ Аги, Джинн Джестин, Сабрина Уазани, Бабак Карими, Валерия Кавалли, Александра Клебанска

    Сюжет фильма:
    Ахмад и его французская жена четыре года живут врозь. По просьбе Мари герой приезжает в Париж из Тегерана, чтобы уладить формальности, связанные с их разводом. Во время своего короткого визита Ахмад наблюдает постоянные ссоры жены и их дочери Люси. Его попытка уладить их отношения открывает секрет из прошлого...




    Снималось в: Франция, Италия
    Киностудия: Canal+ fr

    Время просмотра: 02:10:22
    Перевод текста: Русский профессиональный многоголосый закадровый, авторский дублированный

    Файл
    Кодек для видео: H.264
    Качество фильма: BDRip 576p
    Информация о видео: 1024x554 (1.85:1) at 23.976 fps, AVC at 3900 kbps
    Информация о звуке:
    1: АAС 2.0 127 kbps - Русский профессиональный многоголосый закадровый (iTunes)
    Субтитры: Русский, Французский, Английский

    MediaInfo

    General
    Complete name : I:modoutLe.Passe.2013.576p.P.m4v
    Format : MPEG-4
    Codec ID : M4V
    File size : 3.67 GiB
    Duration : 2h 10mn
    Overall bit rate mode : Variable
    Overall bit rate : 4 030 Kbps
    Movie name : Секреты прошлого
    Performer : Asghar Farhadi
    Genre : Drama
    ContentType : Short Film
    Deion : Ахмад и его французская жена четыре года живут врозь. По просьбе Мари герой приезжает в Париж из Тегерана, чтобы уладить формальности, связанные с их разводом. Во время своего короткого визита Ахмад наблюдает постоянные ссоры жены и их дочери Люси.
    Recorded date : UTC 2013-05-17 08:00:00
    Encoded date : UTC 2014-06-28 17:52:46
    Tagged date : UTC 2014-06-28 17:54:45
    Copyright : Canal+ fr
    Cover : Yes
    ContentRating : mpaa|PG-13|300|

    Title/Sort : Le pass?
    LongDeion : Ахмад и его французская жена четыре года живут врозь. По просьбе Мари герой приезжает в Париж из Тегерана, чтобы уладить формальности, связанные с их разводом. Во время своего короткого визита Ахмад наблюдает постоянные ссоры жены и их дочери Люси. Его попытка уладить их отношения открывает секрет из прошлого…
    AppleStoreCatalogID : 682948
    Vendor : Apple:vendor_id:2013-682948

    Video
    ID : 1
    Format : AVC
    Format/Info : Advanced Video Codec
    Format profile : High@L4.1
    Format settings, CABAC : Yes
    Format settings, ReFrames : 10 frames
    Codec ID : avc1
    Codec ID/Info : Advanced Video Coding
    Duration : 2h 10mn
    Bit rate : 3 899 Kbps
    Maximum bit rate : 11.2 Mbps
    Width : 1 024 pixels
    Height : 554 pixels
    Display aspect ratio : 1.85:1
    Frame rate mode : Constant
    Frame rate : 23.976 fps
    Color space : YUV
    Chroma subsampling : 4:2:0
    Bit depth : 8 bits
    Scan type : Progressive
    Bits/(Pixel*Frame) : 0.287
    Stream size : 3.55 GiB (97%)
    Title : Le.Passe.2013
    Language : French
    Encoded date : UTC 2014-06-28 17:52:46
    Tagged date : UTC 2014-06-28 17:53:10

    Audio
    ID : 2
    Format : AAC
    Format/Info : Advanced Audio Codec
    Format profile : LC
    Codec ID : 40
    Duration : 2h 10mn
    Bit rate mode : Variable
    Bit rate : 127 Kbps
    Maximum bit rate : 197 Kbps
    Channel(s) : 2 channels
    Channel positions : Front: L R
    Sampling rate : 48.0 KHz
    Compression mode : Lossy
    Stream size : 118 MiB (3%)
    Title : MVO iTunes
    Language : Russian
    Encoded date : UTC 2014-06-28 17:50:25
    Tagged date : UTC 2014-06-28 17:53:10

    Text #1
    ID : 3
    Format : Timed Text
    Muxing mode : sbtl
    Codec ID : tx3g
    Duration : 2h 6mn
    Bit rate mode : Variable
    Bit rate : 73 bps
    Stream size : 68.2 KiB (0%)
    Title : Russian _Full_
    Language : Russian
    Encoded date : UTC 2014-06-28 17:53:10
    Tagged date : UTC 2014-06-28 17:53:10

    Text #2
    ID : 4
    Format : Timed Text
    Muxing mode : sbtl
    Codec ID : tx3g
    Duration : 2h 10mn
    Bit rate mode : Variable
    Bit rate : 52 bps
    Stream size : 49.4 KiB (0%)
    Title : French _Full_
    Language : French
    Encoded date : UTC 2014-06-28 17:53:10
    Tagged date : UTC 2014-06-28 17:53:10

    Text #3
    ID : 5
    Format : Timed Text
    Muxing mode : sbtl
    Codec ID : tx3g
    Duration : 2h 6mn
    Bit rate mode : Variable
    Bit rate : 56 bps
    Stream size : 52.3 KiB (0%)
    Title : English _Full_
    Language : English
    Encoded date : UTC 2014-06-28 17:53:10
    Tagged date : UTC 2014-06-28 17:53:10

    Menu
    ID : 6
    Codec ID : text
    Duration : 2h 10mn
    Encoded date : UTC 2014-06-28 17:53:40
    Tagged date : UTC 2014-06-28 17:53:40
    Bit rate mode : CBR
    x264

    x264 info: frame I:1270 Avg QP:15.13 size:101169
    x264 info: frame P:39965 Avg QP:17.52 size: 43234
    x264 info: frame B:146326 Avg QP:19.21 size: 13370
    x264 info: consecutive B-frames: 2.0% 2.2% 6.0% 16.8% 21.9% 46.1% 2.9% 0.9% 0.4% 0.8% 0.0% 0.1% 0.0%
    x264 info: mb I I16..4: 15.9% 47.9% 36.2%
    x264 info: mb P I16..4: 1.2% 5.5% 2.4% P16..4: 27.8% 35.9% 17.3% 6.3% 1.3% skip: 2.3%
    x264 info: mb B I16..4: 0.1% 0.5% 0.2% B16..8: 30.9% 19.0% 3.9% direct: 9.8% skip:35.6% L0:36.0% L1:42.8% BI:21.1%
    x264 info: 8x8 transform intra:58.4% inter:27.5%
    x264 info: direct mvs spatial:100.0% temporal:0.0%
    x264 info: coded y,uvDC,uvAC intra: 94.9% 70.5% 46.5% inter: 28.9% 12.2% 5.1%
    x264 info: i16 v,h,dc,p: 8% 4% 29% 59%
    x264 info: i8 v,h,dc,ddl,ddr,vr,hd,vl,hu: 15% 10% 10% 8% 11% 12% 11% 12% 12%
    x264 info: i4 v,h,dc,ddl,ddr,vr,hd,vl,hu: 14% 8% 6% 10% 14% 13% 12% 12% 12%
    x264 info: i8c dc,h,v,p: 29% 29% 25% 17%
    x264 info: Weighted P-Frames: Y:1.3% UV:0.7%
    x264 info: ref P L0: 56.2% 9.1% 14.0% 6.1% 4.3% 3.3% 2.7% 1.6% 1.4% 1.3% 0.1% 0.0%
    x264 info: ref B L0: 86.5% 5.9% 3.0% 1.4% 1.1% 0.8% 0.7% 0.4% 0.3%
    x264 info: ref B L1: 95.9% 4.1%
    x264 info: kb/s:3899.09
    iTunes tags


    Sort Name: Le pass?
    XID: Apple:vendor_id:2013-682948
    Content ID: 682948
    Copyright: Canal+ fr
    ScreenWriters: Асгар Фархади, Массумех Лахиджи
    Producers: Александр Малле-Гай, Алекса Риверо
    Director: Асгар Фархади
    Cast: Беренис Бежо, Тахар Рахим, Али Мосаффа, Полин Бурле, Элиэ Аги, Джинн Джестин, Сабрина Уазани, Бабак Карими, Валерия Кавалли, Александра Клебанска // B?r?nice Bejo (Marie Brisson), Tahar Rahim (Samir), Ali Mosaffa (Ahmad), Pauline Burlet (Lucie), Elyes Aguis (Fouad), Jeanne Jestin (L?a), Sabrina Ouazani (Na?ma), Babak Karimi (Shahryar), Valeria Cavalli (Valeria), Aleksandra Klebanska (Celine), Jean-Michel Simonet (Medecin), Pierre Guerder (Juge), Anne-Marion de Cayeux (Avocate)
    Rating: PG-13
    Long Deion: Ахмад и его французская жена четыре года живут врозь. По просьбе Мари герой приезжает в Париж из Тегерана, чтобы уладить формальности, связанные с их разводом. Во время своего короткого визита Ахмад наблюдает постоянные ссоры жены и их дочери Люси. Его попытка уладить их отношения открывает секрет из прошлого…
    Deion: Ахмад и его французская жена четыре года живут врозь. По просьбе Мари герой приезжает в Париж из Тегерана, чтобы уладить формальности, связанные с их разводом. Во время своего короткого визита Ахмад наблюдает постоянные ссоры жены и их дочери Люси.
    Release Date: 2013-05-17T08:00:00Z
    Genre: Drama
    Artist: Asghar Farhadi
    Name: Секреты прошлого







    Залил: gekka
    Размер скачиваемого торрента: 3.67 GB (3945538046 Bytes)

    Секреты прошлого / Le passй (2013) BDRip-AVC | iPad | P | iTunes скачать через торрент бесплатно
    загрузка...
    Рейтинг →
     (голосов: 1, оценка 4/5, голосовать можно 1 раз )

    Другие торренты по теме:

  • Секреты прошлого / Прошлое / Le pass / The Past (2013) BDRemux 1080р от ExKinoRay | iTunes Russian
  • Секреты прошлого / Le pass (2013) BDRip 1080p by msltel P, A скачать через торрент бесплатно


    • Комментарии (0):

      Информация

      Информация

        Посетители, находящиеся в группе Гости, не могут оставлять комментарии в данной новости.

        ↓ Меню



        ↓ Опрос

        А Вы добавили сайт в закладки?
        Да
        Не


        Top 10 за месяц (Фильмы)