.
Авторизация | Регистрация
Хочешь лучшие торренты? Добавь свой email!
Добавить
» » Побудь в моей шкуре / Под кожей / Under the Skin (2013) WEB-DL 1080p | A скачать торрент бесплатно




    Побудь в моей шкуре / Под кожей / Under the Skin (2013) WEB-DL 1080p | A скачать торрент бесплатно

    Опубликовал: Админ | Дата: 27-02-2015, 11:10 | Просмотров: 319



    Побудь в моей шкуре / Под кожей / Under the Skin




    Создали в: 2013
    Снималось в: Великобритания, США, Швейцария
    Категория жанра: фантастика, триллер, драма
    Время просмотра: 01:48:14
    Тип перевода: Авторское (одноголосое)
    Киностудия: Film4 (presents), British Film Institute (BFI) (presents) (as BFI), Silver Reel (in association with), Creative Scotland (in association with), FilmNation Entertainment (in association with), Nick Wechsler Productions (as Nick Wechsler), JW Films, Scottish Screen, UK Film Council

    Главный режиссёр: Джонатан Глейзер

    Актеры: Скарлетт Йоханссон, Джереми МакУильямс, Линси Тейлор Маккэй, Даги МакКоннелл, Кевин МакАлинден, Д. Мид, Эндрю Горман, Джо Шула, Криштоф Гадек, Рой Армстронг

    Сюжет фильма: Действие развивается в Шотландии, где каждый день по трассе Эдинбург-Глазго ездит задрипанная машина с роскошным водителем. За рулем пышногрудая брюнетка с огромными зелеными глазами. Она подбирает автостопщиков, в основном здоровых и мощных мужчин, и парализует их. Девица на поверку оказывается представительницей иной цивилизации, чьи сородичи развели бурную деятельность в Шотландии…









    Качество фильма: WEB-DL 1080p
    Тип видео: MKV
    Информация о видео: MPEG-4 AVC / 4505 kb/s / 1916x1032
    Информация о звуке #1: Russian / AC3 / 448 kb/s (6 ch) - VO Алексей Матвеев (Doctor_Joker)
    Информация о звуке #2: English / AC3 / 448 kb/s (6 ch) - Original
    Субтитры: Russian
    Дополнительно: Сохранены оригинальные чаптеры
    Скачать: Sample

    Скриншоты для ознакомления

    МедиаИнфо
    General
    Unique ID : 206387373841036086107004789814989075188 (0x9B44C328DEEEF32C874D20AD8182B2F4)
    Complete name : Z:Under the Skin 2013 HDR WEB-DL 1080p.mkv
    Format : Matroska
    Format version : Version 4 / Version 2
    File size : 4.17 GiB
    Duration : 1h 48mn
    Overall bit rate : 5 511 Kbps
    Movie name : Under the Skin 2013 HDR WEB-DL 1080p
    Encoded date : UTC 2014-06-27 09:40:00
    Writing application : mkvmerge v7.0.0 (;Where We Going;) 64bit built on Jun 9 2014 15:16:27
    Writing library : libebml v1.3.0 + libmatroska v1.4.1
    DURATION : 01:40:07.712000000
    NUMBER_OF_FRAMES : 286
    NUMBER_OF_BYTES : 14420
    _STATISTICS_WRITING_APP : mkvmerge v7.0.0 (;Where We Going;) 64bit built on Jun 9 2014 15:16:27
    _STATISTICS_WRITING_DATE_UTC : 2014-06-27 09:40:00
    _STATISTICS_TAGS : BPS DURATION NUMBER_OF_FRAMES NUMBER_OF_BYTES
    Attachment : Yes
    Video #1
    ID : 1
    Format : AVC
    Format/Info : Advanced Video Codec
    Format profile : High@L4.0
    Format settings, CABAC : Yes
    Format settings, ReFrames : 4 frames
    Codec ID : V_MPEG4/ISO/AVC
    Duration : 1h 48mn
    Bit rate : 4 505 Kbps
    Width : 1 916 pixels
    Height : 1 032 pixels
    Display aspect ratio : 1.85:1
    Frame rate mode : Constant
    Frame rate : 23.976 fps
    Color space : YUV
    Chroma subsampling : 4:2:0
    Bit depth : 8 bits
    Scan type : Progressive
    Bits/(Pixel*Frame) : 0.095
    Stream size : 3.41 GiB (82%)
    Title : Under the Skin 2013 HDR WEB-DL 1080p
    Language : English
    Default : Yes
    Forced : No
    Color primaries : BT.709
    Transfer characteristics : BT.709
    Matrix coefficients : BT.709
    Audio #2
    ID : 2
    Format : AC-3
    Format/Info : Audio Coding 3
    Mode extension : CM (complete main)
    Format settings, Endianness : Big
    Codec ID : A_AC3
    Duration : 1h 48mn
    Bit rate mode : Constant
    Bit rate : 448 Kbps
    Channel count : 6 channels
    Channel positions : Front: L C R, Side: L R, LFE
    Sampling rate : 48.0 KHz
    Bit depth : 16 bits
    Compression mode : Lossy
    Stream size : 347 MiB (8%)
    Title : ? VO Алексей Матвеев (Doctor_Joker)
    Language : Russian
    Default : Yes
    Forced : No
    Audio #3
    ID : 3
    Format : AC-3
    Format/Info : Audio Coding 3
    Mode extension : CM (complete main)
    Format settings, Endianness : Big
    Codec ID : A_AC3
    Duration : 1h 48mn
    Bit rate mode : Constant
    Bit rate : 448 Kbps
    Channel count : 6 channels
    Channel positions : Front: L C R, Side: L R, LFE
    Sampling rate : 48.0 KHz
    Bit depth : 16 bits
    Compression mode : Lossy
    Stream size : 347 MiB (8%)
    Title : ? Original
    Language : English
    Default : No
    Forced : No
    Text #4
    ID : 4
    Format : UTF-8
    Codec ID : S_TEXT/UTF8
    Codec ID/Info : UTF-8 Plain Text
    Title : ? Full Алексей Матвеев (Doctor_Joker)
    Language : Russian
    Default : No
    Forced : No
    Menu
    00:00:00.000 : en: ? HDR 01
    00:06:48.000 : en: ? HDR 02
    00:11:24.000 : en: ? HDR 03
    00:22:45.000 : en: ? HDR 04
    00:31:13.000 : en: ? HDR 05
    00:38:38.000 : en: ? HDR 06
    00:44:48.000 : en: ? HDR 07
    00:49:47.000 : en: ? HDR 08
    00:57:26.000 : en: ? HDR 09
    01:04:18.000 : en: ? HDR 10
    01:12:23.000 : en: ? HDR 11
    01:18:56.000 : en: ? HDR 12
    01:26:44.000 : en: ? HDR 13
    01:30:01.000 : en: ? HDR 14
    01:33:15.000 : en: ? HDR 15
    01:40:41.000 : en: ? HDR 16

    Размер скачиваемого торрента: 4.17 GB (4473905023 Bytes)

    Побудь в моей шкуре / Под кожей / Under the Skin (2013) WEB-DL 1080p | A торрент скачать бесплатно
    загрузка...
    Рейтинг →
     (голосов: 1, оценка 4/5, голосовать можно 1 раз )

    Другие торренты по теме:

  • Побудь в моей шкуре HDRip (2013) скачать через торрент бесплатно
  • Побудь в моей шкуре / Under the Skin (2013) WEB-DLRip-AVC от ExKinoRay | Матвеев скачать через торрент бесплатно
  • Побудь в моей шкуре / Under the Skin (2013) BDRip-AVC от HELLYWOOD | A
  • Побудь в моей шкуре / Под кожей / Under the Skin скачать через торрент бесплатно
  • Побудь в моей шкуре / Under the Skin (2013) BDRip-AVC от HELLYWOOD | Лицензия скачать через торрент бесплатно
  • Побудь в моей шкуре / Under the Skin (2013) DVD5 от New-Team | P | Лицензия
  • Побудь в моей шкуре / Under the Skin (2013) BDRip 720p
  • Побудь в моей шкуре / Under the Skin (2013) BDRip 720p


    • Комментарии (0):

      Информация

      Информация

        Посетители, находящиеся в группе Гости, не могут оставлять комментарии в данной новости.

        ↓ Меню



        ↓ Опрос

        А Вы добавили сайт в закладки?
        Да
        Не


        Top 10 за месяц (Фильмы)