.
Авторизация | Регистрация
Хочешь лучшие торренты? Добавь свой email!
Добавить
» » Королева танца / Dancing Queen (2012) HDRip-AVC | L2 скачать через торрент бесплатно




    Королева танца / Dancing Queen (2012) HDRip-AVC | L2 скачать через торрент бесплатно

    Опубликовал: Админ | Дата: 27-02-2015, 11:10 | Просмотров: 177



    Детально о кино
    Русское название: Королева танца
    Русское название в мировом прокате: Dancing Queen
    Создали в: 2012
    Категория жанра: драма, комедия, семейный
    Главный режиссер: Ли Сок Хун / Seok-hoon Lee
    Актеры: Хван Чжон Мин, Ум Чжун Хва, Ли Хан Ви…

    Сюжет фильма:
    Семейной паре уже под сорок, но успеха в их жизни по-прежнему нет. Пусть у мужа свой маленький бизнес, но главный добытчик в семье — его супруга, работающая много лет инструктором по аэробике. Но однажды герой спасает упавшего под поезд метро беднягу и на утро просыпается национальным героем. Его приглашают на телевидение, предлагают выдвигаться на следующих выборах в мэры. Ослепленный вспышками главный герой не замечает, что в жизни его супруги тоже происходят сумасшедшие перемены…




    Снималось в: Корея Южная
    Киностудия: JK FILMS
    Время просмотра: 02:04:35
    Перевод текста: Любительский (двухголосый закадровый) – RG GREEN TEA

    Файл
    Кодек для видео: h.264 (MKV)
    Качество фильма: HDRip-AVC
    Информация о видео: AVC, 1024 x 432, ~1846 kbps
    Информация о звуке: Русский: AC-3, 2 ch, 192 kbps / Корейский: AC-3, 6 ch, 448 kbps
    Субтитры: нет

    Семпл

    Скриншоты для ознакомления
    MI
    Общее
    Уникальный идентификатор : 214266102862755747528603928939540844297 (0xA132267DCCC455FEAB05021615090F09)
    Полное имя : G: Танцующая королева Королева танца Dancing Queen (2012)Новая папкаKoroleva.tanca.2012.HDRip-AVC.mkv
    Формат : Matroska
    Версия формата : Version 4 / Version 2
    Размер файла : 2,21 Гбайт
    Продолжительность : 2 ч. 4 м.
    Общий поток : 2536 Кбит/сек
    Дата кодирования : UTC 2014-06-24 13:50:04
    Программа кодирования : mkvmerge v6.9.1 (;Blue Panther;) 64bit built on Apr 18 2014 18:23:38
    Библиотека кодирования : libebml v1.3.0 + libmatroska v1.4.1

    Видео
    Идентификатор : 1
    Формат : AVC
    Формат/Информация : Advanced Video Codec
    Профиль формата : Main@L5.1
    Параметр CABAC формата : Да
    Параметр ReFrames формата : 1 кадр
    Идентификатор кодека : V_MPEG4/ISO/AVC
    Продолжительность : 2 ч. 4 м.
    Битрейт : 1846 Кбит/сек
    Ширина : 1024 пикселя
    Высота : 432 пикселя
    Соотношение сторон : 2,40:1
    Режим частоты кадров : Постоянный
    Частота кадров : 23,976 кадра/сек
    Цветовое пространство : YUV
    Субдискретизация насыщенности : 4:2:0
    Битовая глубина : 8 бит
    Тип развёртки : Прогрессивная
    Бит/(Пиксели*Кадры) : 0.174
    Размер потока : 1,61 Гбайт (73%)
    Default : Да
    Forced : Нет

    Аудио #1
    Идентификатор : 2
    Формат : AC-3
    Формат/Информация : Audio Coding 3
    Расширение режима : CM (complete main)
    Параметр Endianness формата : Big
    Идентификатор кодека : A_AC3
    Продолжительность : 2 ч. 4 м.
    Вид битрейта : Постоянный
    Битрейт : 192 Кбит/сек
    Каналы : 2 канала
    Расположение каналов : Front: L R
    Частота : 44,1 КГц
    Битовая глубина : 16 бит
    Метод сжатия : С потерями
    Размер потока : 171 Мбайт (8%)
    Default : Да
    Forced : Нет

    Аудио #2
    Идентификатор : 3
    Формат : AC-3
    Формат/Информация : Audio Coding 3
    Расширение режима : CM (complete main)
    Параметр Endianness формата : Big
    Идентификатор кодека : A_AC3
    Продолжительность : 2 ч. 4 м.
    Вид битрейта : Постоянный
    Битрейт : 448 Кбит/сек
    Каналы : 6 каналов
    Расположение каналов : Front: L C R, Side: L R, LFE
    Частота : 48,0 КГц
    Битовая глубина : 16 бит
    Метод сжатия : С потерями
    Размер потока : 399 Мбайт (18%)
    Default : Нет
    Forced : Нет

    Размер скачиваемого торрента: 2.21 GB (2370094842 Bytes)

    Королева танца / Dancing Queen (2012) HDRip-AVC | L2 скачать через торрент бесплатно
    загрузка...
    Рейтинг →
     (голосов: 1, оценка 5/5, голосовать можно 1 раз )

    Другие торренты по теме:

  • Снежная королева (2012) HDRip | Трейлер
  • Снежная королева (2012) CAMRip
  • Страшные сказки: Каменная Королева / Grim Tales 4: The Stone Queen CE (2013) PC
  • Прощай, моя королева / Farewell, My Queen / Les adieux la reine (2012) BDRip от HQCLUB
  • Снежная королева (2012) DVDRip | Лицензия
  • Снежная королева (2012) DVDRip от Generalfilm | КПК | Лицензия
  • Снежная королева (2012) BDRip 720p | Лицензия
  • Снежная королева (2012) BDRip от Youtracker


    • Комментарии (0):

      Информация

      Информация

        Посетители, находящиеся в группе Гости, не могут оставлять комментарии в данной новости.

        ↓ Меню



        ↓ Опрос

        А Вы добавили сайт в закладки?
        Да
        Не


        Top 10 за месяц (Фильмы)