.
Авторизация | Регистрация
Хочешь лучшие торренты? Добавь свой email!
Добавить
» » С кем переспать!! / The To Do List (2013) BDRemux 1080p от NovaLan скачать торрент бесплатно




    С кем переспать!! / The To Do List (2013) BDRemux 1080p от NovaLan скачать торрент бесплатно

    Опубликовал: Админ | Дата: 27-02-2015, 11:10 | Просмотров: 193



    Русское название: С кем переспать?!!
    Русское название в мировом прокате: The To Do List
    Создали в: 2013
    Категория жанра: Комедия
    Главный режиссер: Мэгги Кэри
    Актеры: Обри Пласа, Джонни Симмонс, Билл Хейдер, Алиа Шокат, Сара Стил, Скотт Портер, Рэйчел Билсон, Кристофер Минц-Плассе, Энди Сэмберг, Дональд Гловер
    Сюжет фильма:
    Действие комедии происходит в 90-е 20 века в американском пригороде. Выпускница школы пишет свой список дел, которые надо завершить до перехода в колледж. Все пункты списка непристойны и направлены на обретение сексуального опыта. Но девушка мало понимает, как получить заветный опыт, и попадает в смешные ситуации.


    Снималось в: США, 3 Arts Entertainment, The Mark Gordon Company
    Время просмотра: 01:43:53.227
    Перевод текста: Дублированный

    Кодек для видео: H.264
    Качество фильма: Blu-Ray Remux 1080p
    Информация о видео: MPEG-4 AVC, 27911 Кбит/с, 1920x1080, 23.976 кадр/с
    Информация о звуке: Русский (AC3, 6 ch, 448 Кбит/с), английский (DTS-HD MA, 6 ch, 3550 Кбит/с), (AC3, 2 ch, 192 Кбит/с) - коментарии
    Субтитры: Английские

    Инфо-файл

    Полное имя : D:Раздачи_DThe.To.Do.List.2013.BDRemux.1080p.NovaLan.mkv
    Формат : Matroska
    Версия формата : Version 4 / Version 2
    Размер файла : 23,3 Гбайт
    Продолжительность : 1 ч. 43 м.
    Режим общего битрейта : Переменный
    Общий поток : 32,1 Мбит/сек
    Название фильма : The To Do List 2013 - NovaLan
    Дата кодирования : UTC 2014-06-19 21:02:43
    Программа кодирования : mkvmerge v6.9.1 (;Blue Panther;) 64bit built on Apr 18 2014 18:23:38
    Библиотека кодирования : libebml v1.3.0 + libmatroska v1.4.1

    Видео
    Идентификатор : 1
    Формат : AVC
    Формат/Информация : Advanced Video Codec
    Профиль формата : High@L4.1
    Параметр CABAC формата : Да
    Параметр ReFrames формата : 2 кадра
    Идентификатор кодека : V_MPEG4/ISO/AVC
    Продолжительность : 1 ч. 43 м.
    Вид битрейта : Переменный
    Битрейт : 29,1 Мбит/сек
    Ширина : 1920 пикселей
    Высота : 1080 пикселей
    Соотношение сторон : 16:9
    Частота кадров : 23,976 кадра/сек
    Цветовое пространство : YUV
    Субдискретизация насыщенности : 4:2:0
    Битовая глубина : 8 бит
    Тип развёртки : Прогрессивная
    Бит/(Пиксели*Кадры) : 0.585
    Размер потока : 21,1 Гбайт (91%)
    Заголовок : The To Do List 2013 - NovaLan
    Default : Да
    Forced : Нет

    Аудио #1
    Идентификатор : 2
    Формат : AC-3
    Формат/Информация : Audio Coding 3
    Расширение режима : CM (complete main)
    Параметр Endianness формата : Big
    Идентификатор кодека : A_AC3
    Продолжительность : 1 ч. 43 м.
    Вид битрейта : Постоянный
    Битрейт : 448 Кбит/сек
    Каналы : 6 каналов
    Расположение каналов : Front: L C R, Side: L R, LFE
    Частота : 48,0 КГц
    Битовая глубина : 16 бит
    Метод сжатия : С потерями
    Размер потока : 333 Мбайт (1%)
    Язык : Russian
    Default : Да
    Forced : Нет

    Аудио #2
    Идентификатор : 3
    Формат : DTS
    Формат/Информация : Digital Theater Systems
    Профиль формата : MA / Core
    Идентификатор кодека : A_DTS
    Продолжительность : 1 ч. 43 м.
    Вид битрейта : Переменный
    Битрейт : 1765 Кбит/сек / 1510 Кбит/сек
    Каналы : 6 каналов
    Расположение каналов : Front: L C R, Side: L R, LFE
    Частота : 48,0 КГц
    Битовая глубина : 24 бит
    Метод сжатия : Без потерь / Lossy
    Язык : English
    Default : Нет
    Forced : Нет

    Аудио #3
    Идентификатор : 4
    Формат : AC-3
    Формат/Информация : Audio Coding 3
    Профиль формата : Dolby Digital
    Расширение режима : CM (complete main)
    Параметр Endianness формата : Big
    Идентификатор кодека : A_AC3
    Продолжительность : 1 ч. 43 м.
    Вид битрейта : Постоянный
    Битрейт : 192 Кбит/сек
    Каналы : 2 канала
    Расположение каналов : Front: L R
    Частота : 48,0 КГц
    Битовая глубина : 16 бит
    Метод сжатия : С потерями
    Размер потока : 143 Мбайт (1%)
    Язык : English
    Default : Нет
    Forced : Нет

    Текст
    Идентификатор : 5
    Формат : UTF-8
    Идентификатор кодека : S_TEXT/UTF8
    Идентификатор кодека/Информация : UTF-8 Plain Text
    Язык : English
    Default : Нет
    Forced : Нет

    Меню
    00:00:00.000 : en:Chapter 1
    00:06:47.949 : en:Chapter 2
    00:13:14.919 : en:Chapter 3
    00:21:51.643 : en:Chapter 4
    00:28:22.117 : en:Chapter 5
    00:33:47.942 : en:Chapter 6
    00:41:35.451 : en:Chapter 7
    00:46:40.923 : en:Chapter 8
    00:51:35.133 : en:Chapter 9
    00:59:53.756 : en:Chapter 10
    01:06:37.702 : en:Chapter 11
    01:12:07.323 : en:Chapter 12
    01:17:44.368 : en:Chapter 13
    01:22:14.304 : en:Chapter 14
    01:29:52.804 : en:Chapter 15
    01:37:36.767 : en:Chapter 16



    Релиз группа NovaLan
    Автор сборки Sergei7721






    Релиз подготовил:
    Залил: Sergei7721
    Размер скачиваемого торрента: 23.30 GB (25014787696 Bytes)

    С кем переспать!! / The To Do List (2013) BDRemux 1080p от NovaLan торрент скачать бесплатно
    загрузка...
    Рейтинг →
     (голосов: 1, оценка 3/5, голосовать можно 1 раз )

    Другие торренты по теме:

  • С кем бы побегать / Mishehu Larutz Ito / Someone to Run With (2006) DVDRip от SergV | L1
  • Ларри Кинг - Как разговаривать с кем угодно, когда угодно и где угодно (2006) MP3
  • С кем переспать / The To Do List (2013) HDRip | Трейлер
  • С кем бы побегать / Mishehu Larutz Ito / Someone to Run With (2006) DVDRip от ClubTorrent | L1


    • Комментарии (0):

      Информация

      Информация

        Посетители, находящиеся в группе Гости, не могут оставлять комментарии в данной новости.

        ↓ Меню



        ↓ Опрос

        А Вы добавили сайт в закладки?
        Да
        Не


        Top 10 за месяц (Фильмы)