.
Авторизация | Регистрация
Хочешь лучшие торренты? Добавь свой email!
Добавить
» » Next / Следующий (2001) DVDRip от RG WazZzuP скачать торрент бесплатно




    Next / Следующий (2001) DVDRip от RG WazZzuP скачать торрент бесплатно

    Опубликовал: Админ | Дата: 27-02-2015, 11:10 | Просмотров: 231



    Следующий / Next

    Сезон 1, Эпизоды с 1 по 4 (из 4)

    Создали в: 2001
    Снималось в: Россия
    Снималось в: Телекомпания REN TV
    Категория жанра: комедия

    Главный режиссёр: Олег Фомин
    Актеры: Александр Абдулов, Александр Лойе, Нина Усатова, Сергей Степанченко, Сергей Греков, Сергей Чонишвили, Александр Медведев, В. Капалов, Мария Аронова, Владимир Епископосян, Татьяна Арнтгольц, Сергей Николаев, Олег Фомин, Алексей Панин


    Перевод текста: Не требуется
    Субтитры: Отсутствуют

    Сюжет фильма: Лавр - вор в законе, авторитет старых понятий, король преступного мира. По воровским законам он не может иметь семью и детей. Лавр так бы и не узнал ничего о своем сыне, если бы не экзамены в ВУЗ, на которых Федечку так несправедливо завалили. И чтобы помочь племяннику, его боевая тетя решается рассказать Лавру о его отцовском долге...

    Список эпизодов

    Эпизод 1
    Эпизод 2
    Эпизод 3
    Эпизод 4





    Время просмотра: по ~00:48:00

    Тип видео: AVI
    Информация о видео кодек: XviD
    Информация о звуке кодек: AC-3
    Свойства видео: 704x400 (16:9), 25 fps, XviD 1.2.1, 1578 Kbps, 0.234 bit/pixel
    Свойства аудио: 48,0 kHz, Audio Coding 3, 2 ch, ~192 kbps avg

    Log
    Encoding video to: D:Temp?024.avi
    XviD (1.2.2) 1600kbps 704x400 23.976fps (287690 frames)

    ...first pass...

    xvid_encraw.exe: -pass1 D:Temp?024_1.log -qtype 0 -threads 6 -i D:Temp?024.avs -o NUL

    Tot: enctime(ms) =1688163.00, length(bytes) = 4182090121
    Avg: enctime(ms) = 5.87, fps = 170.42, length(bytes) = 14536
    I frames: 2478 frames, size = 41994/ 104063138, quants = 2 / 2.00 / 2
    P frames: 124520 frames, size = 27565/ 3432468388, quants = 2 / 2.00 / 2
    B frames: 160692 frames, size = 4017/ 645558595, quants = 4 / 4.00 / 4

    ...last pass...

    xvid_encraw.exe: -pass2 D:Temp?024_1.log -bitrate 1600 -qtype 0 -imin 1 -pmin 1 -bmin 1 -threads 6 -i D:Temp?024.avs -avi D:Temp?024.avi

    Tot: enctime(ms) =2970254.00, length(bytes) = 2399220608
    Avg: enctime(ms) = 10.32, fps = 96.86, length(bytes) = 8339
    I frames: 2478 frames, size = 29260/ 72506848, quants = 2 / 2.86 / 4
    P frames: 124520 frames, size = 14751/ 1836890019, quants = 2 / 3.04 / 4
    B frames: 160692 frames, size = 3048/ 489823741, quants = 4 / 4.89 / 7

    MI:
    Общее
    Полное имя : D:ВидеоNext.1.2001.DVDRipNEXT-1. avi
    Формат : AVI
    Формат/Информация : Audio Video Interleave
    Размер файла : 618 Мбайт
    Продолжительность : 48 м.
    Общий поток : 1779 Кбит/сек
    Программа кодирования : VirtualDubMod 1.5.10.3 | www.virtualdub-fr.org || (build 2550/release)
    Библиотека кодирования : VirtualDub build 35486/release

    Видео
    Идентификатор : 0
    Формат : MPEG-4 Visual
    Профиль формата : Advanced Simple@L5
    Параметр BVOP формата : 2
    Параметр QPel формата : Нет
    Параметр GMC формата : Без точки перехода
    Параметр матрицы формата : Default (H.263)
    Режим смешивания : Сжатый битовый поток
    Идентификатор кодека : XVID
    Идентификатор кодека/Подсказка : XviD
    Продолжительность : 48 м.
    Битрейт : 1578 Кбит/сек
    Ширина : 704 пикселя
    Высота : 400 пикселей
    Соотношение сторон : 16:9
    Частота кадров : 23,976 кадра/сек
    Цветовое пространство : YUV
    Субдискретизация насыщенности : 4:2:0
    Битовая глубина : 8 бит
    Тип развёртки : Прогрессивная
    Метод сжатия : С потерями
    Бит/(Пиксели*Кадры) : 0.234
    Размер потока : 548 Мбайт (89%)
    Библиотека кодирования : XviD 1.2.1 (UTC 2008-12-04)

    Аудио
    Идентификатор : 1
    Формат : AC-3
    Формат/Информация : Audio Coding 3
    Расширение режима : CM (complete main)
    Параметр Endianness формата : Big
    Идентификатор кодека : 2000
    Продолжительность : 48 м.
    Вид битрейта : Постоянный
    Битрейт : 192 Кбит/сек
    Каналы : 2 канала
    Расположение каналов : Front: L R
    Частота : 48,0 КГц
    Битовая глубина : 16 бит
    Метод сжатия : С потерями
    Размер потока : 66,7 Мбайт (11%)
    Выравнивание : Разделение по промежуткам
    Продолжительность промежутка : 42 мс. (1,00 видеокадр)
    Время предзагрузки промежутка : 500 мс.

    Скриншоты для ознакомления



    Залил: Vovan PVL
    Размер скачиваемого торрента: 2.52 GB (2700506042 Bytes)

    Next / Следующий (2001) DVDRip от RG WazZzuP торрент скачать бесплатно
    загрузка...
    Рейтинг →
     (голосов: 1, оценка 3/5, голосовать можно 1 раз )

    Другие торренты по теме:

  • Девушка напротив / The Girl Next Door (2007) BDRip-AVC
  • Мой сосед-красавчик / Yiutjib Ggotminam / Flower Boy Next Door (2013) HDTVRip 720p от BTT-TEAM
  • У меня мало друзей 2 / Boku wa Tomodachi ga Sukunai Next (2013) HDTVRip 720p | AniFilm
  • Три дня на побег / The Next Three Days (2010) HDRip-AVC
  • David Bowie - The Next Day (2013) MP3
  • Next Launcher (2013) Android
  • Шедевр / Самое главное в жизни / The Next Big Thing (2001) DVDRip от Киномагия | P
  • VA - Millennium The Next Generation vol. 18 (2013) MP3


    • Комментарии (0):

      Информация

      Информация

        Посетители, находящиеся в группе Гости, не могут оставлять комментарии в данной новости.

        ↓ Меню



        ↓ Опрос

        А Вы добавили сайт в закладки?
        Да
        Не


        Top 10 за месяц (Фильмы)