.
Авторизация | Регистрация
Хочешь лучшие торренты? Добавь свой email!
Добавить
» » Пятница 13-е / Friday the 13th (2009) BDRip 1080p | D | Театральная версия скачать торрент бесплатно




    Пятница 13-е / Friday the 13th (2009) BDRip 1080p | D | Театральная версия скачать торрент бесплатно

    Опубликовал: Админ | Дата: 27-02-2015, 11:10 | Просмотров: 223



    Детально о кино
    Русское название: Пятница 13-е
    Русское название в мировом прокате: Friday the 13th
    Создали в: 2009
    Категория жанра: ужасы
    Главный режиссер: Маркус Ниспел
    Актеры: Джаред Падалецки, Даниэль Панабэйкер, Аманда Риджетти, Трэвис Ван Винкл, Аарон Йу, Дерек Мирс, Джонатан Садовский, Джулианна Гуилл, Бен Фельдман, Арлен Эскарпета, Райан Хансен, Уилла Форд, Ник Меннелл, Америка Оливо, Кайл Дэвис, Ричард Берджи, Крис Коппола, Розмари Ноуэр, Боб Кинг, Нана Визитор, Стефани Родс

    Сюжет фильма: Молодые друзья Уитни, Майк, Ричи, Аманда и Уэйд заблудились в лесах около заброшенного лагеря Хрустальное озеро. Когда их любопытство взяло верх, они решили посетить то место, где когда-то обитал убийца-психопат. Тем временем Трент приглашает друзей: Джену, Брии, Чеви, Челси, Лоуренса и Нолана в его хижину, расположенную у озера, на уикэнд, полный секса, выпивки и наркотиков.

    Однако их забавный уикэнд, по-видимому, скоро перерастет в кошмар после того, как одинокий путешественник Клэй начинает поиски своей пропавшей сестры Уитни, и молодые тинейджеры вскоре оказываются лицом к лицу со злом, заново рожденным, невообразимым, и усовершенствованным, его имя Джейсон Вурхиз!



    Снималось в: США
    Время просмотра: 01:37:10
    Перевод текста: Профессиональный (дублированный) + оригинал

    Файл
    Кодек для видео: x264
    Качество фильма: BDRip 1080p
    Информация о видео: 1920x798@23.976 fps ~ 10 000 Kbps 2.40:1 0.272 High@L4.1 0.272 bit/pixel
    Информация о звуке 1: Дубляж AC3 640 kBit/s 48 kHz 5.1 DD
    Информация о звуке 2: English DTS 1510 kBit/s 48 kHz 6 ch.
    Субтитры: русские, английские

    Скриншоты для ознакомления
    MI
    General
    Unique ID : 249438482109208529345317845559964304241 (0xBBA81AACB2B08BC1A9540C92057F8371)
    Complete name : I:__R__The Friday 13-th.mkv
    Format : Matroska
    Format version : Version 4 / Version 2
    File size : 8.27 GiB
    Duration : 1h 37mn
    Overall bit rate : 12.2 Mbps
    Encoded date : UTC 2014-01-21 20:57:13
    Writing application : mkvmerge v6.5.0 (;Isn;t she lovely;) built on Oct 20 2013 12:50:05
    Writing library : libebml v1.3.0 + libmatroska v1.4.1

    Video
    ID : 1
    Format : AVC
    Format/Info : Advanced Video Codec
    Format profile : High@L4.1
    Format settings, CABAC : Yes
    Format settings, ReFrames : 5 frames
    Codec ID : V_MPEG4/ISO/AVC
    Duration : 1h 37mn
    Bit rate : 10 000 Kbps
    Width : 1 920 pixels
    Height : 798 pixels
    Display aspect ratio : 2.40:1
    Frame rate mode : Constant
    Frame rate : 23.976 fps
    Color space : YUV
    Chroma subsampling : 4:2:0
    Bit depth : 8 bits
    Scan type : Progressive
    Bits/(Pixel*Frame) : 0.272
    Stream size : 6.64 GiB (80%)
    Title : AVC 1920x798@23.976 fps ~ 10 MBit/s 2.40:1 0.272 High@L4.1
    Writing library : x264 core 130 r2274bm c832fe9
    Encoding settings : cabac=1 / ref=5 / deblock=1:-3:-3 / analyse=0x3:0x133 / me=umh / subme=11 / psy=1 / psy_rd=1.00:0.05 / mixed_ref=1 / me_range=48 / chroma_me=1 / trellis=2 / 8x8dct=1 / cqm=0 / deadzone=21,11 / fast_pskip=0 / chroma_qp_offset=-3 / threads=6 / lookahead_threads=1 / sliced_threads=0 / nr=0 / decimate=1 / interlaced=0 / bluray_compat=0 / constrained_intra=0 / bframes=12 / b_pyramid=2 / b_adapt=2 / b_bias=0 / direct=3 / weightb=1 / open_gop=0 / weightp=2 / keyint=250 / keyint_min=23 / scenecut=40 / intra_refresh=0 / rc=2pass / mbtree=0 / bitrate=10000 / ratetol=1.0 / qcomp=0.70 / qpmin=10 / qpmax=69 / qpstep=4 / cplxblur=40.0 / qblur=1.2 / ip_ratio=1.30 / pb_ratio=1.20 / aq=3:0.75
    Language : English
    Default : Yes
    Forced : No

    Audio #1
    ID : 2
    Format : AC-3
    Format/Info : Audio Coding 3
    Mode extension : CM (complete main)
    Format settings, Endianness : Big
    Codec ID : A_AC3
    Duration : 1h 37mn
    Bit rate mode : Constant
    Bit rate : 640 Kbps
    Channel count : 6 channels
    Channel positions : Front: L C R, Side: L R, LFE
    Sampling rate : 48.0 KHz
    Bit depth : 16 bits
    Compression mode : Lossy
    Stream size : 445 MiB (5%)
    Title : Дубляж AC3 640 kBit/s 48 kHz 5.1 DD
    Language : Russian
    Default : Yes
    Forced : No

    Audio #2
    ID : 3
    Format : DTS
    Format/Info : Digital Theater Systems
    Mode : 16
    Format settings, Endianness : Big
    Codec ID : A_DTS
    Duration : 1h 37mn
    Bit rate mode : Constant
    Bit rate : 1 510 Kbps
    Channel count : 6 channels
    Channel positions : Front: L C R, Side: L R, LFE
    Sampling rate : 48.0 KHz
    Bit depth : 24 bits
    Compression mode : Lossy
    Stream size : 1.02 GiB (12%)
    Title : English DTS 1510 kBit/s 48 kHz 6 ch.
    Language : English
    Default : No
    Forced : No

    Text #1
    ID : 4
    Format : UTF-8
    Codec ID : S_TEXT/UTF8
    Codec ID/Info : UTF-8 Plain Text
    Language : Russian
    Default : No
    Forced : No

    Text #2
    ID : 5
    Format : UTF-8
    Codec ID : S_TEXT/UTF8
    Codec ID/Info : UTF-8 Plain Text
    Language : English
    Default : No
    Forced : No

    Размер скачиваемого торрента: 8.27 GB (8874721997 Bytes)

    Пятница 13-е / Friday the 13th (2009) BDRip 1080p | D | Театральная версия торрент скачать бесплатно
    загрузка...
    Рейтинг →
     (голосов: 1, оценка 4/5, голосовать можно 1 раз )

    Другие торренты по теме:

  • OST - Пятница, 13-е / Friday the 13th (2009) MP3
  • Пятница 13-е / Friday the 13th (2009) HDRip-AVC | Расширенная Убийственная Версия
  • Пятница 13-е / Friday the 13th (2009) Blu-Ray 1080p
  • Пятница 13-е / Friday the 13th (2009) BDRip-AVC от HELLYWOOD | D скачать через торрент бесплатно
  • Пятница 13-е / Friday The 13th: The Series (1987) DVDRip Brazzass скачать через торрент бесплатно
  • Пятница 13-е / Friday The 13th: The Series (1987 - 1990) DVDRip от Brazzass
  • Пятница 13-е / Friday the 13th (1980) HDRip-AVC от New-Team скачать через торрент бесплатно
  • Пятница, 13-е. Часть 4: Последняя глава / Friday the 13th: The Final Chapter (1984) BDRip 1080p by msltel | P, A, L1 скачать через торрент бесплатно


    • Комментарии (0):

      Информация

      Информация

        Посетители, находящиеся в группе Гости, не могут оставлять комментарии в данной новости.

        ↓ Меню



        ↓ Опрос

        А Вы добавили сайт в закладки?
        Да
        Не


        Top 10 за месяц (Фильмы)