.
Авторизация | Регистрация
Хочешь лучшие торренты? Добавь свой email!
Добавить
» » Вечеринка / Afterparty (2013) BDRemux 1080p | Uncut | P, L1 скачать через торрент бесплатно




    Вечеринка / Afterparty (2013) BDRemux 1080p | Uncut | P, L1 скачать через торрент бесплатно

    Опубликовал: Админ | Дата: 27-02-2015, 11:10 | Просмотров: 217



    Вечеринка / Afterparty

    Создали в: 2013
    Снималось в: Испания
    Категория жанра: ужасы, триллер
    Время просмотра: 01:18:58
    Тип перевода: Профессиональное (многоголосое) + Любительское (одноголосое)
    Киностудия: Llanero Films, Telecinco Cinema, Telespan 2000
    Главный режиссёр: Мигель Ларрайа Валенсуела

    Актеры: Луис Фернандес, Алисия Санс, Росио Леон, Ана Кальдас, Хуан Бланко, Андреа Дуэсо, Давид Сеихо, Урсула Корберо, Ева Угарте, Коте Солер

    Сюжет фильма: Карлос — телезвезда и кумир молодёжи, развлекается на дикой вечеринке с самыми прекрасными девушками. На следующее утро он просыпается в неизвестном заброшенном доме с тремя девушками, с которыми развлекался прошлой ночью. Молодые люди не могут связаться с внешним миром. Вскоре они осознают, что не одни в этом таинственном доме и понимают, что, возможно, им никогда оттуда не выбраться…



    Качество фильма: BDRemux 1080p
    Тип видео: MKV
    Информация о видео: MPEG-4 AVC / 24958 kb/s / 1920x1080
    Информация о звуке #1: Russian / AC3 / 256 kb/s (6 ch) - MVO R5
    Информация о звуке #2: Russian / AC3 / 448 kb/s (6 ch) - VO den904 (перевод kon2011)
    Информация о звуке #3: Spanish / DTS-HD MA / 1780 kb/s (6 ch) - Original
    Субтитры: нет
    Дополнительно: Сохранены оригинальные чаптеры как на Blu-ray
    Скачать: Sample

    Скриншоты для ознакомления

    МедиаИнфо
    General
    Unique ID : 241678511286956751658836189343692233961 (0xB5D19692FB10B2D8A2B86B959E261CE9)
    Complete name : L:Afterparty 2013 Uncut HDR BDRemux 1080p.mkv
    Format : Matroska
    Format version : Version 4 / Version 2
    File size : 15.1 GiB
    Duration : 1h 18mn
    Overall bit rate mode : Variable
    Overall bit rate : 27.4 Mbps
    Movie name : Afterparty 2013 Uncut HDR BDRemux 1080p
    Encoded date : UTC 2014-06-12 12:13:57
    Writing application : mkvmerge v7.0.0 (;Where We Going;) 64bit built on Jun 9 2014 15:16:27
    Writing library : libebml v1.3.0 + libmatroska v1.4.1
    DURATION : 01:18:57.750000000
    NUMBER_OF_FRAMES : 444164
    NUMBER_OF_BYTES : 1054311800
    _STATISTICS_WRITING_APP : mkvmerge v7.0.0 (;Where We Going;) 64bit built on Jun 9 2014 15:16:27
    _STATISTICS_WRITING_DATE_UTC : 2014-06-12 12:13:57
    _STATISTICS_TAGS : BPS DURATION NUMBER_OF_FRAMES NUMBER_OF_BYTES
    Attachment : Yes
    Video #1
    ID : 1
    Format : AVC
    Format/Info : Advanced Video Codec
    Format profile : High@L4.1
    Format settings, CABAC : Yes
    Format settings, ReFrames : 4 frames
    Codec ID : V_MPEG4/ISO/AVC
    Duration : 1h 18mn
    Bit rate mode : Variable
    Maximum bit rate : 35.0 Mbps
    Width : 1 920 pixels
    Height : 1 080 pixels
    Display aspect ratio : 16:9
    Frame rate mode : Constant
    Frame rate : 23.976 fps
    Color space : YUV
    Chroma subsampling : 4:2:0
    Bit depth : 8 bits
    Scan type : Progressive
    Title : Afterparty 2013 Uncut HDR BDRemux 1080p
    Language : English
    Default : Yes
    Forced : No
    DURATION : 01:18:57.733000000
    NUMBER_OF_FRAMES : 113592
    NUMBER_OF_BYTES : 14780678362
    _STATISTICS_WRITING_APP : mkvmerge v7.0.0 (;Where We Going;) 64bit built on Jun 9 2014 15:16:27
    _STATISTICS_WRITING_DATE_UTC : 2014-06-12 12:13:57
    _STATISTICS_TAGS : BPS DURATION NUMBER_OF_FRAMES NUMBER_OF_BYTES
    Audio #2
    ID : 2
    Format : AC-3
    Format/Info : Audio Coding 3
    Mode extension : CM (complete main)
    Format settings, Endianness : Big
    Codec ID : A_AC3
    Duration : 1h 18mn
    Bit rate mode : Constant
    Bit rate : 256 Kbps
    Channel count : 6 channels
    Channel positions : Front: L C R, Side: L R, LFE
    Sampling rate : 48.0 KHz
    Bit depth : 16 bits
    Compression mode : Lossy
    Stream size : 145 MiB (1%)
    Title : MVO R5
    Language : Russian
    Default : Yes
    Forced : No
    Audio #3
    ID : 3
    Format : AC-3
    Format/Info : Audio Coding 3
    Mode extension : CM (complete main)
    Format settings, Endianness : Big
    Codec ID : A_AC3
    Duration : 1h 18mn
    Bit rate mode : Constant
    Bit rate : 448 Kbps
    Channel count : 6 channels
    Channel positions : Front: L C R, Side: L R, LFE
    Sampling rate : 48.0 KHz
    Bit depth : 16 bits
    Compression mode : Lossy
    Stream size : 253 MiB (2%)
    Title : VO den904
    Language : Russian
    Default : No
    Forced : No
    Audio #4
    ID : 4
    Format : DTS
    Format/Info : Digital Theater Systems
    Format profile : MA / Core
    Mode : 16
    Format settings, Endianness : Big
    Codec ID : A_DTS
    Duration : 1h 18mn
    Bit rate mode : Variable
    Bit rate : Unknown / 1 509 Kbps
    Channel count : 6 channels
    Channel positions : Front: L C R, Side: L R, LFE
    Sampling rate : 48.0 KHz
    Bit depth : 16 bits
    Compression mode : Lossless / Lossy
    Title : Original
    Language : Spanish
    Default : No
    Forced : No
    Menu
    00:00:00.000 : es: ? HDR 01
    00:08:07.320 : es: ? HDR 02
    00:14:40.546 : es: ? HDR 03
    00:18:30.609 : es: ? HDR 04
    00:22:56.124 : es: ? HDR 05
    00:30:48.096 : es: ? HDR 06
    00:36:45.661 : es: ? HDR 07
    00:44:30.376 : es: ? HDR 08
    00:50:02.416 : es: ? HDR 09
    00:55:39.169 : es: ? HDR 10
    01:02:33.040 : es: ? HDR 11
    01:09:13.482 : es: ? HDR 12

    Размер скачиваемого торрента: 15.14 GB (16254781531 Bytes)

    Вечеринка / Afterparty (2013) BDRemux 1080p | Uncut | P, L1 скачать через торрент бесплатно
    загрузка...
    Рейтинг →
     (голосов: 1, оценка 3/5, голосовать можно 1 раз )

    Другие торренты по теме:

  • Вечеринка удовольствий (Запретная вечеринка) / Pleasure Party (2008) SATRip | P скачать через торрент бесплатно
  • Пижамная вечеринка / Вечеринка для взрослых / Pajama Party (1964) HDTVRip | P2
  • Пижамная вечеринка / Вечеринка для взрослых / Pajama Party (1964) HDTV 1080i | P2
  • VA - Вечеринка Ретро FM (2004) FLAC от Underverse
  • Большая вечеринка / Le grand soir (2012) BDRip от HQCLUB | Лицензия
  • Сборник - Зажигательная вечеринка. Зимний выпуск. Русская версия (2013) MP3
  • VA - Зажигательная вечеринка. Зимний выпуск. Зарубежная версия (2013) MP3
  • Сборник - Новогодняя блатная вечеринка Радио шансон. Часть 2 (2013) MP3


    • Комментарии (0):

      Информация

      Информация

        Посетители, находящиеся в группе Гости, не могут оставлять комментарии в данной новости.

        ↓ Меню



        ↓ Опрос

        А Вы добавили сайт в закладки?
        Да
        Не


        Top 10 за месяц (Фильмы)