.
Авторизация | Регистрация
Хочешь лучшие торренты? Добавь свой email!
Добавить
» » Терминал / The Terminal (2004) BDRip 1080p by msltel | D, P, P2, A скачать через торрент бесплатно




    Терминал / The Terminal (2004) BDRip 1080p by msltel | D, P, P2, A скачать через торрент бесплатно

    Опубликовал: Админ | Дата: 27-02-2015, 11:10 | Просмотров: 173



    Русское название: Терминал
    Русское название в мировом прокате: The Terminal
    Создали в: 2004
    Категория жанра: Драма, комедия
    Снималось в: США, DreamWorks SKG, Amblin Entertainment, Parkes/MacDonald Productions
    Главный режиссер: Стивен Спилберг
    Актеры: Том Хэнкс, Кэтрин Зета-Джонс, Стэнли Туччи, Чи МакБрайд, Диего Луна, Бэрри Шебака Хенли, Кумар Паллана, Зои Салдана, Эдди Джонс, Джуд Чикколелла, Кори Рейнольдс, Гильермо Диас, Рини Белл, Стивен Мендел, Валерий Николаев, Майкл Нури, Ана Мария Квинтана, Боб Моррисей, Саша Спилберг, Сьюзэн Слоум, Мик Скриба, Джим Ишида, Карлис Бурк, Стефон Фуллер, Дэн Финнерти

    Сюжет фильма: Фильм рассказывает историю Виктора Наворски, отправившегося в Нью-Йорк из Восточной Европы. Пока Виктор летел в самолёте, на его родине произошёл государственный переворот. Оказавшись в международном аэропорту имени Джона Кеннеди с паспортом ниоткуда, он не имеет права въехать в Соединённые Штаты и должен коротать свои дни и ночи в гостинице аэропорта, пока война в его родной стране не закончится. Тянутся недели и месяцы, и Виктор обнаруживает, что небольшой мирок терминала может быть наполнен абсурдом, щедростью, амбициями, развлечениями, желанием сохранить свой статус, интуитивной прозорливостью и даже любовью к очаровательной стюардессе Амелии. Виктору удаётся завоевать симпатии всех, кроме одного человека — чиновника аэропорта Фрэнка Диксона, который считает его бюрократической ошибкой, проблемой, которую он не может контролировать, но от которой жаждет избавиться...

    Качество фильма: BDRip 1080p
    Размер скачиваемого торрента: 26.49 ГБ
    Время просмотра: 02:08:45

    Информация о видео: MPEG-4 AVC, 22.5 Mбит/с, 1920x1036
    Информация о звуке 1: русский, 48 kHz, AC3, 6 ch, 384 kbps avg, Дублированный
    Информация о звуке 2: русский, 48 kHz, AC3, 2 ch, 192 kbps avg, Профессиональный многоголосый
    Информация о звуке 3: русский, 48 kHz, AC3, 6 ch, 384 kbps avg, Профессиональный двухголосый, Tycoon
    Информация о звуке 4: русский, 48 kHz, DTS, 6 ch, 1509 kbps avg, Авторский, Сергей Визгунов
    Информация о звуке 5: русский, 48 kHz, DTS, 6 ch, 1509 kbps avg, Авторский, Владимир Королёв

    Внешние файлы
    Информация о звуке: русский, 48 kHz, AC3, 6 ch, 448 kbps avg, Авторский, Сергей Визгунов
    Информация о звуке: русский, 48 kHz, AC3, 6 ch, 448 kbps avg, Авторский, Владимир Королёв
    Информация о звуке: английский, 48 kHz, DTS, 6 ch, 1509 kbps avg, Оригинал
    Субтитры: русские
    Субтитры: английские (цветные, для слабослышащих)

    Исходник: morov(HDtracker)

    Сравнение с исходником



    MediaInfo +Лог х264
    Общее
    Полное имя : D:VideoTerminal.2004.BDRip.1080pTerminal.2004.AVO.rus.В.Королёв.ac3
    Формат : AC-3
    Формат/Информация : Audio Coding 3
    Размер файла : 413 Мбайт
    Продолжительность : 2 ч. 8 м.
    Режим общего битрейта : Постоянный
    Общий поток : 448 Кбит/сек

    Аудио
    Формат : AC-3
    Формат/Информация : Audio Coding 3
    Расширение режима : CM (complete main)
    Параметр Endianness формата : Big
    Продолжительность : 2 ч. 8 м.
    Вид битрейта : Постоянный
    Битрейт : 448 Кбит/сек
    Каналы : 6 каналов
    Расположение каналов : Front: L C R, Side: L R, LFE
    Частота : 48,0 КГц
    Битовая глубина : 16 бит
    Метод сжатия : С потерями
    Размер потока : 413 Мбайт (100%)

    Общее
    Полное имя : D:VideoTerminal.2004.BDRip.1080pTerminal.2004.AVO.rus.С.Визгунов.ac3
    Формат : AC-3
    Формат/Информация : Audio Coding 3
    Размер файла : 413 Мбайт
    Продолжительность : 2 ч. 8 м.
    Режим общего битрейта : Постоянный
    Общий поток : 448 Кбит/сек

    Аудио
    Формат : AC-3
    Формат/Информация : Audio Coding 3
    Расширение режима : CM (complete main)
    Параметр Endianness формата : Big
    Продолжительность : 2 ч. 8 м.
    Вид битрейта : Постоянный
    Битрейт : 448 Кбит/сек
    Каналы : 6 каналов
    Расположение каналов : Front: L C R, Side: L R, LFE
    Частота : 48,0 КГц
    Битовая глубина : 16 бит
    Метод сжатия : С потерями
    Размер потока : 413 Мбайт (100%)

    Общее
    Уникальный идентификатор : 230762049017543779939204555376692186271 (0xAD9B276E0EE3A97BB1214629984E4C9F)
    Полное имя : D:VideoTerminal.2004.BDRip.1080pTerminal.2004.BDRip.1080p.mkv
    Формат : Matroska
    Версия формата : Version 4 / Version 2
    Размер файла : 24,3 Гбайт
    Продолжительность : 2 ч. 8 м.
    Общий поток : 27,0 Мбит/сек
    Дата кодирования : UTC 2014-06-12 06:05:01
    Программа кодирования : mkvmerge v6.9.1 (;Blue Panther;) 64bit built on Apr 18 2014 18:23:38
    Библиотека кодирования : libebml v1.3.0 + libmatroska v1.4.1

    Видео
    Идентификатор : 1
    Формат : AVC
    Формат/Информация : Advanced Video Codec
    Профиль формата : High@L4.1
    Параметр CABAC формата : Да
    Параметр ReFrames формата : 4 кадра
    Идентификатор кодека : V_MPEG4/ISO/AVC
    Продолжительность : 2 ч. 8 м.
    Битрейт : 22,5 Мбит/сек
    Ширина : 1920 пикселей
    Высота : 1036 пикселей
    Соотношение сторон : 1,85:1
    Режим частоты кадров : Постоянный
    Частота кадров : 23,976 кадра/сек
    Цветовое пространство : YUV
    Субдискретизация насыщенности : 4:2:0
    Битовая глубина : 8 бит
    Тип развёртки : Прогрессивная
    Бит/(Пиксели*Кадры) : 0.472
    Размер потока : 20,3 Гбайт (83%)
    Заголовок : BDRip -- STarankov
    Библиотека кодирования : x264 core 138 r2358 9e941d1
    Залил: msltel
    Размер скачиваемого торрента: 26.49 GB (28439509611 Bytes)


    Терминал / The Terminal (2004) BDRip 1080p by msltel | D, P, P2, A скачать через торрент бесплатно
    загрузка...
    Рейтинг →
     (голосов: 1, оценка 3/5, голосовать можно 1 раз )

    Другие торренты по теме:

  • Терминал / The Terminal (2004) WEB-DLRip от Youtracker | D
  • Терминал (2010) DVB
  • Бумбокс - Терминал Б (2013) МР3
  • Терминал / The Terminal (2004) WEB-DL 720p от BuR | R.G. FireBit-Films
  • Терминал / The Terminal (2004) HDRip-AVC от BuR | R.G. FireBit-Films
  • Терминал / The Terminal (2004) WEB-DLRip | P2
  • Терминал / The Terminal (2004) HDTVRip 720p от MediaClub | D, P, P2, A
  • Терминал / The Terminal (2004) BDRip от HQCLUB скачать через торрент бесплатно


    • Комментарии (0):

      Информация

      Информация

        Посетители, находящиеся в группе Гости, не могут оставлять комментарии в данной новости.

        ↓ Меню



        ↓ Опрос

        А Вы добавили сайт в закладки?
        Да
        Не


        Top 10 за месяц (Фильмы)