.
Авторизация | Регистрация
Хочешь лучшие торренты? Добавь свой email!
Добавить
» » Планета Ка-Пэкс / K-PAX (2001) HDRip от Leon-masl скачать через торрент бесплатно




    Планета Ка-Пэкс / K-PAX (2001) HDRip от Leon-masl скачать через торрент бесплатно

    Опубликовал: Админ | Дата: 27-02-2015, 11:10 | Просмотров: 249



    Детально о кино
    Русское название: Планета Ка-Пэкс
    Русское название в мировом прокате: K-PAX
    Создали в: 2001
    Категория жанра: Фантастика, драма
    Главный режиссер: Иэн Софтли
    Актеры: Кевин Спейси, Джефф Бриджес, Мэри Маккормак, Элфри Вудард, Дэвид Патрик Келли, Сауль Уильямс, Питер Герети, Селия Уэстон, Аджай Найду, Трэйси Вилар

    Сюжет фильма:
    В Манхэттенский психиатрический институт привозят странного человека в черных очках. Он зовет себя Протом и утверждает, что его родина - далекая планета Ка-Пэкс, откуда он мгновенно перенесся на Землю в луче света. Несмотря на все усилия, опытному доктору Пауэллу не удается разгадать загадку таинственного пациента, который охотно и весьма убедительно доказывает всем свое внеземное происхождение и заранее назначает дату своего возвращения на Ка-Пэкс.
    Вскоре Марка Пауэлла, так и не сумевшего приоткрыть тайну личности своего самого удивительного подопечного, начинает тревожить невероятная, но навязчивая мысль: может быть, Прот вовсе не сумасшедший и в его словах есть доля правды…




    Снималось в: США, Германия
    Киностудия: MF Internationale Medien und Film GmbH Co. 2. Produktions KG, Intermedia Films, Lawrence Gordon Productions, Path? Pictures International
    Время просмотра: 02:00:21
    Перевод текста: Профессиональный двухголосый (НТВ+)

    Файл
    Кодек для видео: XviD
    Качество фильма: HDRip
    Информация о видео: 720x304, 23.976 fps, 1539 kpbs
    Информация о звуке: AC3, 2 ch, 192 Kbps
    MI
    Общее
    Полное имя : K-PAX.HDRip.avi
    Формат : AVI
    Формат/Информация : Audio Video Interleave
    Размер файла : 1,46 Гбайт
    Продолжительность : 2 ч. 0 м.
    Общий поток : 1740 Кбит/сек
    Программа кодирования : VirtualDubMod 1.5.10.3 | www.virtualdub-fr.org || (build 2550/release)
    Библиотека кодирования : VirtualDubMod build 2550/release

    Видео
    Идентификатор : 0
    Формат : MPEG-4 Visual
    Профиль формата : Advanced Simple@L5
    Параметр BVOP формата : 1
    Параметр QPel формата : Нет
    Параметр GMC формата : Без точки перехода
    Параметр матрицы формата : Выборочная
    Идентификатор кодека : XVID
    Идентификатор кодека/Подсказка : XviD
    Продолжительность : 2 ч. 0 м.
    Битрейт : 1539 Кбит/сек
    Ширина : 720 пикс.
    Высота : 304 пикс.
    Соотношение сторон : 2,35:1
    Частота кадров : 23,976 кадр/сек
    Цветовое пространство : YUV
    Подвыборка цветности : 4:2:0
    Битовая глубина : 8 бит
    Тип развёртки : Прогрессивная
    Метод сжатия : С потерями
    Бит/(Пиксели*Кадры) : 0.293
    Размер потока : 1,29 Гбайт (88%)
    Библиотека кодирования : XviD 73

    Аудио
    Идентификатор : 1
    Формат : AC-3
    Формат/Информация : Audio Coding 3
    Расширение режима : CM (complete main)
    Идентификатор кодека : 2000
    Продолжительность : 2 ч. 0 м.
    Вид битрейта : Постоянный
    Битрейт : 192 Кбит/сек
    Канал(ы) : 2 канала(ов)
    Расположение каналов : Front: L R
    Частота : 48,0 КГц
    Битовая глубина : 16 бит
    Метод сжатия : С потерями
    Размер потока : 165 Мбайт (11%)
    Выравнивание : Разделение по промежуткам
    Продолжительность промежутка : 42 мс. (1,00 видеокадр)
    Время предзагрузки промежутка : 500 ms
    Скриншоты для ознакомления


    Релиз подготовил: Leon-masl
    Залил: leon-masl
    Размер скачиваемого торрента: 1.46 GB (1570596864 Bytes)

    Планета Ка-Пэкс / K-PAX (2001) HDRip от Leon-masl скачать через торрент бесплатно
    загрузка...
    Рейтинг →
     (голосов: 1, оценка 4/5, голосовать можно 1 раз )

    Другие торренты по теме:

  • Планета Ка-Пэкс / K-PAX (2001) HDRip-AVC
  • Планета Ка-Пэкс / K-PAX (2001) HDRip-AVC | iPad | P скачать через торрент бесплатно


    • Комментарии (0):

      Информация

      Информация

        Посетители, находящиеся в группе Гости, не могут оставлять комментарии в данной новости.

        ↓ Меню



        ↓ Опрос

        А Вы добавили сайт в закладки?
        Да
        Не


        Top 10 за месяц (Фильмы)