.
Авторизация | Регистрация
Хочешь лучшие торренты? Добавь свой email!
Добавить
» » Отель Гранд Будапешт / The Grand Budapest Hotel (2014) BDRip 1080p | D скачать через торрент бесплатно




    Отель Гранд Будапешт / The Grand Budapest Hotel (2014) BDRip 1080p | D скачать через торрент бесплатно

    Опубликовал: Админ | Дата: 27-02-2015, 11:10 | Просмотров: 219



    Отель Гранд Будапешт / The Grand Budapest Hotel

    Создали в: 2014
    Снималось в: Великобритания, Германия
    Категория жанра: комедия, детектив, приключения, криминал
    Время просмотра: 01:39:55
    Тип перевода: Профессиональное (дублированное) BD CEE
    Главный режиссёр: Уэс Андерсон

    Актеры: Рэйф Файнс, Тони Револори, Сирша Ронан, Эдриан Броуди, Уиллем Дефо, Ф. Мюррэй Абрахам, Джуд Лоу, Эдвард Нортон, Джефф Голдблюм, Харви Кейтель

    Сюжет фильма: Фильм рассказывает об увлекательных приключениях легендарного консьержа Густава и его юного друга, портье Зеро Мустафы. Сотрудники гостиницы становятся свидетелями кражи и поисков бесценных картин эпохи Возрождения, борьбы за огромное состояние богатой семьи и… драматических изменений в Европе между двумя кровопролитными войнами XX века.



    Исходник: The Grand Budapest Hotel 2014 1080p Blu-ray AVC DTS-HD MA 5 1-BAKED
    Качество фильма: BDRip 1080p
    Тип видео: MKV
    Информация о видео: MPEG-4 AVC / 14000 kb/s / 1920x1036
    Информация о звуке #1: Russian / DTS / 768 kb/s (6 ch) - Dub
    Информация о звуке #2: Russian / AC3 / 640 kb/s (6 ch) - Dub
    Информация о звуке #3: English / DTS / 1536 kb/s (6 ch) - Original
    Информация о звуке #4: English / AC3 / 640 kb/s (6 ch) - Original
    Информация о звуке #5: English / AC3 / 448 kb/s (6 ch) - Descriрtion
    Субтитры: Russian, Ukrainian, English
    Дополнительно: Сохранены оригинальные чаптеры как на Blu-ray
    Скачать: Sample

    Скриншоты для ознакомления

    МедиаИнфо
    General
    Unique ID : 178294316224555393737936240163618842429 (0x86223C7B1526F37F844741A99E78673D)
    Complete name : D:The Grand Budapest Hotel 2014 HDR BDRip 1080p.mkv
    Format : Matroska
    Format version : Version 4 / Version 2
    File size : 12.6 GiB
    Duration : 1h 39mn
    Overall bit rate : 18.0 Mbps
    Movie name : The Grand Budapest Hotel 2014 HDR BDRip 1080p
    Encoded date : UTC 2014-06-10 03:34:15
    Writing application : mkvmerge v7.0.0 (;Where We Going;) 64bit built on Jun 9 2014 15:16:27
    Writing library : libebml v1.3.0 + libmatroska v1.4.1
    DURATION : 01:39:55.605000000
    NUMBER_OF_FRAMES : 1272
    NUMBER_OF_BYTES : 49873
    _STATISTICS_WRITING_APP : mkvmerge v7.0.0 (;Where We Going;) 64bit built on Jun 9 2014 15:16:27
    _STATISTICS_WRITING_DATE_UTC : 2014-06-10 03:34:15
    _STATISTICS_TAGS : BPS DURATION NUMBER_OF_FRAMES NUMBER_OF_BYTES
    Attachment : Yes
    Video #1
    ID : 1
    Format : AVC
    Format/Info : Advanced Video Codec
    Format profile : High@L4.1
    Format settings, CABAC : Yes
    Format settings, ReFrames : 4 frames
    Codec ID : V_MPEG4/ISO/AVC
    Duration : 1h 39mn
    Bit rate : 14.0 Mbps
    Width : 1 920 pixels
    Height : 1 036 pixels
    Display aspect ratio : 1.85:1
    Frame rate mode : Constant
    Frame rate : 23.976 fps
    Color space : YUV
    Chroma subsampling : 4:2:0
    Bit depth : 8 bits
    Scan type : Progressive
    Bits/(Pixel*Frame) : 0.294
    Stream size : 9.52 GiB (76%)
    Title : The Grand Budapest Hotel 2014 HDR BDRip 1080p
    Writing library : x264 core 138 r2358 9e941d1
    Encoding settings : cabac=1 / ref=4 / deblock=1:-3:-3 / analyse=0x3:0x113 / me=umh / subme=11 / psy=1 / psy_rd=1.00:0.00 / mixed_ref=1 / me_range=64 / chroma_me=1 / trellis=2 / 8x8dct=1 / cqm=0 / deadzone=21,11 / fast_pskip=0 / chroma_qp_offset=-2 / threads=48 / lookahead_threads=4 / sliced_threads=0 / nr=0 / decimate=0 / interlaced=0 / bluray_compat=0 / constrained_intra=0 / bframes=8 / b_pyramid=2 / b_adapt=2 / b_bias=0 / direct=3 / weightb=1 / open_gop=0 / weightp=2 / keyint=360 / keyint_min=2 / scenecut=40 / intra_refresh=0 / rc_lookahead=60 / rc=2pass / mbtree=0 / bitrate=14000 / ratetol=1.0 / qcomp=0.70 / qpmin=0 / qpmax=69 / qpstep=4 / cplxblur=20.0 / qblur=0.5 / vbv_maxrate=50000 / vbv_bufsize=45000 / nal_hrd=none / ip_ratio=1.23 / pb_ratio=1.15 / aq=1:0.80
    Language : English
    Default : Yes
    Forced : No
    DURATION : 01:39:55.031000000
    NUMBER_OF_FRAMES : 143737
    NUMBER_OF_BYTES : 10482856109
    _STATISTICS_WRITING_APP : mkvmerge v7.0.0 (;Where We Going;) 64bit built on Jun 9 2014 15:16:27
    _STATISTICS_WRITING_DATE_UTC : 2014-06-10 03:34:15
    _STATISTICS_TAGS : BPS DURATION NUMBER_OF_FRAMES NUMBER_OF_BYTES
    Audio #2
    ID : 2
    Format : DTS
    Format/Info : Digital Theater Systems
    Mode : 16
    Format settings, Endianness : Big
    Codec ID : A_DTS
    Duration : 1h 39mn
    Bit rate mode : Constant
    Bit rate : 768 Kbps
    Channel count : 6 channels
    Channel positions : Front: L C R, Side: L R, LFE
    Sampling rate : 48.0 KHz
    Bit depth : 24 bits
    Compression mode : Lossy
    Stream size : 549 MiB (4%)
    Title : Dub BD CEE
    Language : Russian
    Default : Yes
    Forced : No
    Audio #3
    ID : 3
    Format : AC-3
    Format/Info : Audio Coding 3
    Mode extension : CM (complete main)
    Format settings, Endianness : Big
    Codec ID : A_AC3
    Duration : 1h 39mn
    Bit rate mode : Constant
    Bit rate : 640 Kbps
    Channel count : 6 channels
    Channel positions : Front: L C R, Side: L R, LFE
    Sampling rate : 48.0 KHz
    Bit depth : 16 bits
    Compression mode : Lossy
    Stream size : 458 MiB (4%)
    Title : Dub BD CEE
    Language : Russian
    Default : No
    Forced : No
    Audio #4
    ID : 4
    Format : DTS
    Format/Info : Digital Theater Systems
    Mode : 16
    Format settings, Endianness : Big
    Codec ID : A_DTS
    Duration : 1h 39mn
    Bit rate mode : Constant
    Bit rate : 1 509 Kbps
    Channel count : 6 channels
    Channel positions : Front: L C R, Side: L R, LFE
    Sampling rate : 48.0 KHz
    Bit depth : 24 bits
    Compression mode : Lossy
    Stream size : 1.05 GiB (8%)
    Title : Original
    Language : English
    Default : No
    Forced : No
    Audio #5
    ID : 5
    Format : AC-3
    Format/Info : Audio Coding 3
    Mode extension : CM (complete main)
    Format settings, Endianness : Big
    Codec ID : A_AC3
    Duration : 1h 39mn
    Bit rate mode : Constant
    Bit rate : 640 Kbps
    Channel count : 6 channels
    Channel positions : Front: L C R, Side: L R, LFE
    Sampling rate : 48.0 KHz
    Bit depth : 16 bits
    Compression mode : Lossy
    Stream size : 458 MiB (4%)
    Title : Original
    Language : English
    Default : No
    Forced : No
    Audio #6
    ID : 6
    Format : AC-3
    Format/Info : Audio Coding 3
    Mode extension : CM (complete main)
    Format settings, Endianness : Big
    Codec ID : A_AC3
    Duration : 1h 39mn
    Bit rate mode : Constant
    Bit rate : 448 Kbps
    Channel count : 6 channels
    Channel positions : Front: L C R, Side: L R, LFE
    Sampling rate : 48.0 KHz
    Bit depth : 16 bits
    Compression mode : Lossy
    Stream size : 320 MiB (2%)
    Title : Descriрtion
    Language : English
    Default : No
    Forced : No
    Text #7
    ID : 7
    Format : UTF-8
    Codec ID : S_TEXT/UTF8
    Codec ID/Info : UTF-8 Plain Text
    Title : Full
    Language : Russian
    Default : No
    Forced : No
    Text #8
    ID : 8
    Format : UTF-8
    Codec ID : S_TEXT/UTF8
    Codec ID/Info : UTF-8 Plain Text
    Title : Full
    Language : Ukrainian
    Default : No
    Forced : No
    Text #9
    ID : 9
    Format : UTF-8
    Codec ID : S_TEXT/UTF8
    Codec ID/Info : UTF-8 Plain Text
    Title : Forced
    Language : English
    Default : No
    Forced : No
    Text #10
    ID : 10
    Format : UTF-8
    Codec ID : S_TEXT/UTF8
    Codec ID/Info : UTF-8 Plain Text
    Title : Full
    Language : English
    Default : No
    Forced : No
    Text #11
    ID : 11
    Format : UTF-8
    Codec ID : S_TEXT/UTF8
    Codec ID/Info : UTF-8 Plain Text
    Title : SDH
    Language : English
    Default : No
    Forced : No
    Text #12
    ID : 12
    Format : UTF-8
    Codec ID : S_TEXT/UTF8
    Codec ID/Info : UTF-8 Plain Text
    Title : SDH Colored
    Language : English
    Default : No
    Forced : No
    Text #13
    ID : 13
    Format : UTF-8
    Codec ID : S_TEXT/UTF8
    Codec ID/Info : UTF-8 Plain Text
    Title : Full
    Language : Bulgarian
    Default : No
    Forced : No
    Text #14
    ID : 14
    Format : UTF-8
    Codec ID : S_TEXT/UTF8
    Codec ID/Info : UTF-8 Plain Text
    Title : Full
    Language : Croatian
    Default : No
    Forced : No
    Text #15
    ID : 15
    Format : UTF-8
    Codec ID : S_TEXT/UTF8
    Codec ID/Info : UTF-8 Plain Text
    Title : Full
    Language : Czech
    Default : No
    Forced : No
    Text #16
    ID : 16
    Format : UTF-8
    Codec ID : S_TEXT/UTF8
    Codec ID/Info : UTF-8 Plain Text
    Title : Full
    Language : Dutch
    Default : No
    Forced : No
    Text #17
    ID : 17
    Format : UTF-8
    Codec ID : S_TEXT/UTF8
    Codec ID/Info : UTF-8 Plain Text
    Title : Full
    Language : Estonian
    Default : No
    Forced : No
    Text #18
    ID : 18
    Format : UTF-8
    Codec ID : S_TEXT/UTF8
    Codec ID/Info : UTF-8 Plain Text
    Title : Full
    Language : French
    Default : No
    Forced : No
    Text #19
    ID : 19
    Format : UTF-8
    Codec ID : S_TEXT/UTF8
    Codec ID/Info : UTF-8 Plain Text
    Title : Full
    Language : Hungarian
    Default : No
    Forced : No
    Text #20
    ID : 20
    Format : UTF-8
    Codec ID : S_TEXT/UTF8
    Codec ID/Info : UTF-8 Plain Text
    Title : Full
    Language : Icelandic
    Default : No
    Forced : No
    Text #21
    ID : 21
    Format : UTF-8
    Codec ID : S_TEXT/UTF8
    Codec ID/Info : UTF-8 Plain Text
    Title : Full
    Language : Latvian
    Default : No
    Forced : No
    Text #22
    ID : 22
    Format : UTF-8
    Codec ID : S_TEXT/UTF8
    Codec ID/Info : UTF-8 Plain Text
    Title : Full
    Language : Lithuanian
    Default : No
    Forced : No
    Text #23
    ID : 23
    Format : UTF-8
    Codec ID : S_TEXT/UTF8
    Codec ID/Info : UTF-8 Plain Text
    Title : Full
    Language : Polish
    Default : No
    Forced : No
    Text #24
    ID : 24
    Format : UTF-8
    Codec ID : S_TEXT/UTF8
    Codec ID/Info : UTF-8 Plain Text
    Title : Full
    Language : Portuguese
    Default : No
    Forced : No
    Text #25
    ID : 25
    Format : UTF-8
    Codec ID : S_TEXT/UTF8
    Codec ID/Info : UTF-8 Plain Text
    Title : Full (BRA)
    Language : Portuguese
    Default : No
    Forced : No
    Text #26
    ID : 26
    Format : UTF-8
    Codec ID : S_TEXT/UTF8
    Codec ID/Info : UTF-8 Plain Text
    Title : Full
    Language : Romanian
    Default : No
    Forced : No
    Text #27
    ID : 27
    Format : UTF-8
    Codec ID : S_TEXT/UTF8
    Codec ID/Info : UTF-8 Plain Text
    Title : Full
    Language : Serbian
    Default : No
    Forced : No
    Text #28
    ID : 28
    Format : UTF-8
    Codec ID : S_TEXT/UTF8
    Codec ID/Info : UTF-8 Plain Text
    Title : Full
    Language : Slovak
    Default : No
    Forced : No
    Text #29
    ID : 29
    Format : UTF-8
    Codec ID : S_TEXT/UTF8
    Codec ID/Info : UTF-8 Plain Text
    Title : Full
    Language : Slovenian
    Default : No
    Forced : No
    Text #30
    ID : 30
    Format : UTF-8
    Codec ID : S_TEXT/UTF8
    Codec ID/Info : UTF-8 Plain Text
    Title : Full
    Language : Spanish
    Default : No
    Forced : No
    Text #31
    ID : 31
    Format : UTF-8
    Codec ID : S_TEXT/UTF8
    Codec ID/Info : UTF-8 Plain Text
    Title : Full
    Language : Turkish
    Default : No
    Forced : No
    Menu
    00:00:00.000 : en:? HDR 01
    00:02:55.884 : en:? HDR 02
    00:06:00.151 : en:? HDR 03
    00:08:28.133 : en:? HDR 04
    00:11:32.609 : en:? HDR 05
    00:14:17.190 : en:? HDR 06
    00:17:39.600 : en:? HDR 07
    00:19:56.237 : en:? HDR 08
    00:23:08.804 : en:? HDR 09
    00:25:35.409 : en:? HDR 10
    00:29:30.310 : en:? HDR 11
    00:32:11.763 : en:? HDR 12
    00:34:16.262 : en:? HDR 13
    00:35:51.649 : en:? HDR 14
    00:38:58.044 : en:? HDR 15
    00:40:18.833 : en:? HDR 16
    00:41:43.793 : en:? HDR 17
    00:45:22.761 : en:? HDR 18
    00:48:22.649 : en:? HDR 19
    00:51:53.026 : en:? HDR 20
    00:55:18.273 : en:? HDR 21
    00:59:08.545 : en:? HDR 22
    01:04:17.020 : en:? HDR 23
    01:08:34.986 : en:? HDR 24
    01:12:20.461 : en:? HDR 25
    01:16:18.907 : en:? HDR 26
    01:17:41.490 : en:? HDR 27
    01:20:47.801 : en:? HDR 28
    01:24:02.370 : en:? HDR 29
    01:27:08.556 : en:? HDR 30
    01:30:55.908 : en:? HDR 31
    01:32:57.363 : en:? HDR 32

    Размер скачиваемого торрента: 12.56 GB (13490644940 Bytes)

    Отель Гранд Будапешт / The Grand Budapest Hotel (2014) BDRip 1080p | D скачать через торрент бесплатно
    загрузка...
    Рейтинг →
     (голосов: 1, оценка 5/5, голосовать можно 1 раз )

    Другие торренты по теме:

  • OST - Отель Гранд Будапешт / The Grand Budapest Hotel (2014) MP3
  • Отель Гранд Будапешт (2014) скачать через торрент бесплатно
  • Отель Гранд Будапешт / The Grand Budapest Hotel (2014) WEB-DLRip | Звук с TS скачать через торрент бесплатно
  • Отель Гранд Будапешт / The Grand Budapest Hotel (2014) WEB-DL 720p | Звук с TS скачать через торрент бесплатно
  • Отель Гранд Будапешт / The Grand Budapest Hotel (2014) WEB-DLRip | Звук с TS скачать через торрент бесплатно
  • Отель Гранд Будапешт / The Grand Budapest Hotel (2014) HDRip | D | Лицензия
  • Отель Гранд Будапешт / The Grand Budapest Hotel (2014) BDRip 1080p | Лицензия
  • Отель Гранд Будапешт / The Grand Budapest Hotel (2014) BDRip 720p | Лицензия


    • Комментарии (0):

      Информация

      Информация

        Посетители, находящиеся в группе Гости, не могут оставлять комментарии в данной новости.

        ↓ Меню



        ↓ Опрос

        А Вы добавили сайт в закладки?
        Да
        Не


        Top 10 за месяц (Фильмы)