.
Авторизация | Регистрация
Хочешь лучшие торренты? Добавь свой email!
Добавить
» » Дом Хемингуэй / Dom Hemingway (2013) BDRemux 1080p | P, L2, L1 скачать через торрент бесплатно




    Дом Хемингуэй / Dom Hemingway (2013) BDRemux 1080p | P, L2, L1 скачать через торрент бесплатно

    Опубликовал: Админ | Дата: 27-02-2015, 11:10 | Просмотров: 201



    Дом Хемингуэй / Dom Hemingway

    Создали в: 2013
    Снималось в: Великобритания
    Категория жанра: драма, комедия, криминал
    Время просмотра: 01:33:46
    Тип перевода: Профессиональное (многоголосое) + Любительское (двухголосое) + Любительское (одноголосое)
    Главный режиссёр: Ричард Шепард

    Актеры: Джуд Лоу, Ричард Э. Грант, Демиан Бишир, Эмилия Кларк, Лука Франзони, Ричард Грэхэм, Джордж Суини, Марк Уингетт, Дэвид Бокэм, Ник Раггетт

    Сюжет фильма: Главный герой, виртуозный взломщик сейфов, отличающийся весёлым нравом и цинизмом, но при этом представляющий реальную угрозу. Проведя 12 лет в тюрьме и выйдя на свободу, он намерен востребовать должок, который причитается ему за то, что он держал язык за зубами.



    Исходник: Dom Hemingway 2013 1080p GBR Blu-ray AVC DTS HD MA 5.1 -PCH
    Качество фильма: BDRemux 1080p
    Тип видео: MKV
    Информация о видео: MPEG-4 AVC / 28075 kb/s / 1920x1080
    Информация о звуке #1: Russian / AC3 / 448 kb/s (6 ch) - MVO Online movies
    Информация о звуке #2: Russian / AC3 / 448 kb/s (6 ch) - DVO Paradox
    Информация о звуке #3: Russian / AC3 / 448 kb/s (6 ch) - VO qwerty
    Информация о звуке #4: English / DTS-HD MA / 2111 kb/s (6 ch) - Original
    Субтитры: Russian, English
    Дополнительно: Сохранены оригинальные чаптеры как на Blu-ray
    Скачать: Sample

    Скриншоты для ознакомления

    МедиаИнфо
    General
    Unique ID : 245666460420947465959956337353407454305 (0xB8D1A3A59A0D7433A5FAB1612E85DC61)
    Complete name : D:Dom Hemingway 2013 UK Transfer HDR BDRemux 1080p.mkv
    Format : Matroska
    Format version : Version 4 / Version 2
    File size : 20.7 GiB
    Duration : 1h 33mn
    Overall bit rate mode : Variable
    Overall bit rate : 31.5 Mbps
    Movie name : Dom Hemingway 2013 UK Transfer HDR BDRemux 1080p
    Encoded date : UTC 2014-06-10 17:51:15
    Writing application : mkvmerge v7.0.0 (;Where We Going;) 64bit built on Jun 9 2014 15:16:27
    Writing library : libebml v1.3.0 + libmatroska v1.4.1
    DURATION : 01:33:46.784000000
    NUMBER_OF_FRAMES : 175837
    NUMBER_OF_BYTES : 315099904
    _STATISTICS_WRITING_APP : mkvmerge v7.0.0 (;Where We Going;) 64bit built on Jun 9 2014 15:16:27
    _STATISTICS_WRITING_DATE_UTC : 2014-06-10 17:51:15
    _STATISTICS_TAGS : BPS DURATION NUMBER_OF_FRAMES NUMBER_OF_BYTES
    Attachment : Yes
    Video #1
    ID : 1
    Format : AVC
    Format/Info : Advanced Video Codec
    Format profile : High@L4.1
    Format settings, CABAC : Yes
    Format settings, ReFrames : 4 frames
    Codec ID : V_MPEG4/ISO/AVC
    Duration : 1h 33mn
    Bit rate mode : Variable
    Maximum bit rate : 35.0 Mbps
    Width : 1 920 pixels
    Height : 1 080 pixels
    Display aspect ratio : 16:9
    Frame rate mode : Constant
    Frame rate : 24.000 fps
    Standard : NTSC
    Color space : YUV
    Chroma subsampling : 4:2:0
    Bit depth : 8 bits
    Scan type : Progressive
    Title : Dom Hemingway 2013 UK Transfer HDR BDRemux 1080p
    Language : English
    Default : Yes
    Forced : No
    Color primaries : BT.709
    Transfer characteristics : BT.709
    Matrix coefficients : BT.709
    Audio #2
    ID : 2
    Format : AC-3
    Format/Info : Audio Coding 3
    Mode extension : CM (complete main)
    Format settings, Endianness : Big
    Codec ID : A_AC3
    Duration : 1h 33mn
    Bit rate mode : Constant
    Bit rate : 448 Kbps
    Channel count : 6 channels
    Channel positions : Front: L C R, Side: L R, LFE
    Sampling rate : 48.0 KHz
    Bit depth : 16 bits
    Compression mode : Lossy
    Stream size : 301 MiB (1%)
    Title : MVO Online movies
    Language : Russian
    Default : Yes
    Forced : No
    Audio #3
    ID : 3
    Format : AC-3
    Format/Info : Audio Coding 3
    Mode extension : CM (complete main)
    Format settings, Endianness : Big
    Codec ID : A_AC3
    Duration : 1h 33mn
    Bit rate mode : Constant
    Bit rate : 448 Kbps
    Channel count : 6 channels
    Channel positions : Front: L C R, Side: L R, LFE
    Sampling rate : 48.0 KHz
    Bit depth : 16 bits
    Compression mode : Lossy
    Stream size : 301 MiB (1%)
    Title : DVO Paradox
    Language : Russian
    Default : No
    Forced : No
    Audio #4
    ID : 4
    Format : AC-3
    Format/Info : Audio Coding 3
    Mode extension : CM (complete main)
    Format settings, Endianness : Big
    Codec ID : A_AC3
    Duration : 1h 33mn
    Bit rate mode : Constant
    Bit rate : 448 Kbps
    Channel count : 6 channels
    Channel positions : Front: L C R, Side: L R, LFE
    Sampling rate : 48.0 KHz
    Bit depth : 16 bits
    Compression mode : Lossy
    Stream size : 301 MiB (1%)
    Title : VO qwerty
    Language : Russian
    Default : No
    Forced : No
    Audio #5
    ID : 5
    Format : DTS
    Format/Info : Digital Theater Systems
    Format profile : MA / Core
    Mode : 16
    Format settings, Endianness : Big
    Codec ID : A_DTS
    Duration : 1h 33mn
    Bit rate mode : Variable
    Bit rate : Unknown / 768 Kbps
    Channel count : 6 channels
    Channel positions : Front: L C R, Side: L R, LFE
    Sampling rate : 48.0 KHz
    Bit depth : 24 bits
    Compression mode : Lossless / Lossy
    Title : Original
    Language : English
    Default : No
    Forced : No
    Text #6
    ID : 6
    Format : UTF-8
    Codec ID : S_TEXT/UTF8
    Codec ID/Info : UTF-8 Plain Text
    Title : Full Notabenoid
    Language : Russian
    Default : No
    Forced : No
    Text #7
    ID : 7
    Format : UTF-8
    Codec ID : S_TEXT/UTF8
    Codec ID/Info : UTF-8 Plain Text
    Title : Full
    Language : English
    Default : No
    Forced : No
    Text #8
    ID : 8
    Format : UTF-8
    Codec ID : S_TEXT/UTF8
    Codec ID/Info : UTF-8 Plain Text
    Title : SDH
    Language : English
    Default : No
    Forced : No
    Text #9
    ID : 9
    Format : UTF-8
    Codec ID : S_TEXT/UTF8
    Codec ID/Info : UTF-8 Plain Text
    Title : SDH Colored
    Language : English
    Default : No
    Forced : No
    Menu
    00:00:00.000 : en: ? HDR 01
    00:09:03.000 : en: ? HDR 02
    00:18:11.083 : en: ? HDR 03
    00:25:12.000 : en: ? HDR 04
    00:33:03.916 : en: ? HDR 05
    00:40:41.666 : en: ? HDR 06
    00:49:16.000 : en: ? HDR 07
    00:57:46.166 : en: ? HDR 08
    01:05:01.500 : en: ? HDR 09
    01:14:03.291 : en: ? HDR 10
    01:18:30.250 : en: ? HDR 11
    01:24:48.958 : en: ? HDR 12


    На замену этой раздачи, в которой отсутствует проф. озвучка, субтитры Eng SDH, SDH Colored.
    Размер скачиваемого торрента: 20.66 GB (22179663940 Bytes)

    Дом Хемингуэй / Dom Hemingway (2013) BDRemux 1080p | P, L2, L1 скачать через торрент бесплатно
    загрузка...
    Рейтинг →
     (голосов: 1, оценка 5/5, голосовать можно 1 раз )

    Другие торренты по теме:

  • Дом Хемингуэй / Dom Hemingway (2013) BDRip 720p от CINEMANIA | L2, L1
  • Дом Хемингуэй / Dom Hemingway (2013) BDRip 1080p от CINEMANIA | L2, L1
  • Дом Хемингуэй / Dom Hemingway (2013) HDRip | L2
  • Дом Хемингуэй / Dom Hemingway (2013) BDRip 720p от Leonardo and Scarabey | L | Paradox скачать через торрент бесплатно
  • Дом Хемингуэй / Dom Hemingway (2013) HDRip | P скачать через торрент бесплатно
  • Дом Хемингуэй / Dom Hemingway (2013) HDRip | P скачать через торрент бесплатно
  • Дом Хемингуэй / Dom Hemingway (2013) BDRip 720p от CINEMANIA | P, L2, L1 скачать через торрент бесплатно
  • Дом Хемингуэй / Dom Hemingway (2013) BDRip 1080p от CINEMANIA | P, L2, L1 скачать через торрент бесплатно


    • Комментарии (0):

      Информация

      Информация

        Посетители, находящиеся в группе Гости, не могут оставлять комментарии в данной новости.

        ↓ Меню



        ↓ Опрос

        А Вы добавили сайт в закладки?
        Да
        Не


        Top 10 за месяц (Фильмы)