.
Авторизация | Регистрация
Хочешь лучшие торренты? Добавь свой email!
Добавить
» » Пьяный мастер 2. / Jui kuen II (1994) BDRip 720p by msltel | P, A, L1 скачать через торрент бесплатно




    Пьяный мастер 2. / Jui kuen II (1994) BDRip 720p by msltel | P, A, L1 скачать через торрент бесплатно

    Опубликовал: Админ | Дата: 27-02-2015, 11:10 | Просмотров: 190



    Русское название: Пьяный мастер 2
    Русское название в мировом прокате: Jui kuen II
    Создали в: 1994
    Категория жанра: Боевик, комедия
    Снималось в: Dimension Films
    Главный режиссер: Чиа-Лянг Лиу
    Актеры: Джеки Чан, Анита Муи, Ти Лунг, Феликс Вонг

    Сюжет фильма: Пьяный мастер возвращается, его стиль становится еще более отточенным и смешным! Возвращаясь домой из шопинг-тура вместе со своим отцом, знаменитый пьяный мастер Вонг-Фей Хунг оказывается вовлеченным в потасовку между иностранцами, пытающимися вывезти из Китая ценные древние реликвии, и патриотами, которые хотят помешать вывозу этих предметов из страны. К сожалению, отец Вонг-Фей Хунга никогда не занимался ни одним из видов спорта, кроме пьяных драк, поэтому герою приходится сражаться практически одному против толпы. Но как всегда его удивительный стиль боя помогает ему расправиться с многочисленными врагами.

    Качество фильма: BDRip 720p
    Размер скачиваемого торрента: 5.45 ГБ
    Время просмотра: 01:42:30

    Информация о видео: MPEG-4 AVC, 3874 Кбит/с, 1280x546
    Информация о звуке 1: русский, 48 kHz, AC3, 2 ch, 192 kbps avg, Профессиональный многоголосый, СТС
    Информация о звуке 2: русский, 48 kHz, AC3, 2 ch, 192 kbps avg, Профессиональный многоголосый, ОРТ
    Информация о звуке 3: русский, 48 kHz, AC3, 6 ch, 448 kbps avg, Авторский, Андрей Гаврилов
    Информация о звуке 4: русский, 48 kHz, AC3, 6 ch, 448 kbps avg, Авторский, Юрий Живов
    Информация о звуке 5: русский, 48 kHz, AC3, 2 ch, 192 kbps avg, Авторский, Михаил Иванов
    Информация о звуке 6: русский, 48 kHz, AC3, 2 ch, 192 kbps avg, Любительский одноголосый, Tai Seng

    Внешние файлы
    Информация о звуке: русский, 48 kHz, DTS, 6 ch, 1509 kbps avg, Авторский, Андрей Гаврилов
    Информация о звуке: английский, 48 kHz, AC3, 6 ch, 448 kbps avg, Оригинал
    Субтитры: русские
    Субтитры: английские

    Исходник: Ambulacetus (HDtracker)

    Сравнение с исходником



    MediaInfo +Лог х264
    Общее
    Полное имя : D:VideoPjanyj master.2.1994.BDRip.720pPjanyj master.2.1994.AVO.rus.А.Гаврилов.dts
    Формат : DTS
    Формат/Информация : Digital Theater Systems
    Размер файла : 1,08 Гбайт
    Продолжительность : 1 ч. 42 м.
    Режим общего битрейта : Постоянный
    Общий поток : 1509 Кбит/сек

    Аудио
    Формат : DTS
    Формат/Информация : Digital Theater Systems
    Режим : 16
    Параметр Endianness формата : Big
    Продолжительность : 1 ч. 42 м.
    Вид битрейта : Постоянный
    Битрейт : 1509 Кбит/сек
    Каналы : 6 каналов
    Расположение каналов : Front: L C R, Side: L R, LFE
    Частота : 48,0 КГц
    Битовая глубина : 24 бит
    Метод сжатия : С потерями
    Размер потока : 1,08 Гбайт (100%)

    Общее
    Уникальный идентификатор : 189619059629327283277239533589180815198 (0x8EA74D706BEC05E2852D06D267F9975E)
    Полное имя : D:VideoPjanyj master.2.1994.BDRip.720pPjanyj master.2.1994.BDRip.720p.mkv
    Формат : Matroska
    Версия формата : Version 4 / Version 2
    Размер файла : 4,05 Гбайт
    Продолжительность : 1 ч. 42 м.
    Общий поток : 5650 Кбит/сек
    Дата кодирования : UTC 2014-06-08 08:39:55
    Программа кодирования : mkvmerge v6.9.1 (;Blue Panther;) 64bit built on Apr 18 2014 18:23:38
    Библиотека кодирования : libebml v1.3.0 + libmatroska v1.4.1

    Видео
    Идентификатор : 1
    Формат : AVC
    Формат/Информация : Advanced Video Codec
    Профиль формата : High@L4.1
    Параметр CABAC формата : Да
    Параметр ReFrames формата : 9 кадров
    Идентификатор кодека : V_MPEG4/ISO/AVC
    Продолжительность : 1 ч. 42 м.
    Битрейт : 3874 Кбит/сек
    Ширина : 1280 пикселей
    Высота : 546 пикселей
    Соотношение сторон : 2,35:1
    Режим частоты кадров : Постоянный
    Частота кадров : 23,976 кадра/сек
    Цветовое пространство : YUV
    Субдискретизация насыщенности : 4:2:0
    Битовая глубина : 8 бит
    Тип развёртки : Прогрессивная
    Бит/(Пиксели*Кадры) : 0.231
    Размер потока : 2,77 Гбайт (69%)
    Заголовок : BDRip -- STarankov
    Библиотека кодирования : x264 core 138 r2358 9e941d1
    Залил: msltel
    Размер скачиваемого торрента: 5.45 GB (5848249791 Bytes)


    Пьяный мастер 2. / Jui kuen II (1994) BDRip 720p by msltel | P, A, L1 скачать через торрент бесплатно
    загрузка...
    Рейтинг →
     (голосов: 1, оценка 4/5, голосовать можно 1 раз )

    Другие торренты по теме:

  • Пьяный мастер / Jui kuen (1978) DVDRip-AVC | A, P
  • Легенда о пьяном мастере / Пьяный мастер 2 / The Legend of Drunken Master / Jui kuen II (1994) HDRip от Assassins Creed | КПК
  • Пьяный мастер / Drunken Master / Jui kuen (1978) HDTVRip-AVC от New-Team скачать через торрент бесплатно
  • Пьяный мастер / Drunken Master / Jui kuen (1978) HDTVRip от New-Team скачать через торрент бесплатно
  • Пьяный мастер 2. Легенда о пьяном мастере / The Legend of Drunken Master / Jui kuen II (1994) HDRip-AVC от New-Team
  • Пьяный мастер 2. Легенда о пьяном мастере / The Legend of Drunken Master / Jui kuen II (1994) HDRip от New-Team
  • Пьяный мастер 2. / Jui kuen II (1994) BDRip by msltel | P, A, L1
  • Пьяный мастер 2. / Jui kuen II (1994) BDRip 1080p by msltel | P, A, L1 скачать через торрент бесплатно


    • Комментарии (0):

      Информация

      Информация

        Посетители, находящиеся в группе Гости, не могут оставлять комментарии в данной новости.

        ↓ Меню



        ↓ Опрос

        А Вы добавили сайт в закладки?
        Да
        Не


        Top 10 за месяц (Фильмы)