.
Авторизация | Регистрация
Хочешь лучшие торренты? Добавь свой email!
Добавить
» » Парк Юрского периода 2: Затерянный мир / The Lost World: Jurassic Park (1997) BDRip от New-Team | D скачать через торрент бесплатно




    Парк Юрского периода 2: Затерянный мир / The Lost World: Jurassic Park (1997) BDRip от New-Team | D скачать через торрент бесплатно

    Опубликовал: Админ | Дата: 27-02-2015, 11:10 | Просмотров: 227


    Снималось в: США
    Создали в: Amblin Entertainment, Universal Pictures

    Категория жанра: фантастика, боевик, приключения
    Создали в: 1997
    Время просмотра: 02:08:43

    Перевод текста: Профессиональный (полное дублирование)
    Оригинальная аудиодорожка: нет
    Субтитры подготовлены: нет

    Главный режиссер: Стивен Спилберг / Steven Spielberg

    Актеры:
    Джефф Голдблюм, Джулианна Мур, Пит Постлетуэйт, Ричард Аттенборо, Винс Вон, Арлисс Ховард, Ванесса Ли Честер, Петер Стормаре, Харви Джейсон, Ричард Шифф...

    Роли дублировали:
    Дмитрий Матвеев, Елена Соловьева, Всеволод Кузнецов, Людмила Шувалова, Всеволод Абдулов...

    Сюжет:
    События этого фильма разворачиваются через четыре года после того, что произошло в Парке Юрского периода. На близлежащем острове динозавры выжили и адаптировались к дикой природе. Но вот находится Некто, кто хочет перевезти их на материк и заработать на этом, не понимая, какими могут быть последствия, и посылает на остров своих людей. Джон Хэммонд, который потерял контроль над своей компанией, считает, что у него появился шанс исправить свои прошлые ошибки. Он, в свою очередь, снаряжает экспедицию во главе с Яном Малкольмом, чтобы появиться там до высадки наемников. В результате происходящих событий две эти конфликтующие группы вынуждены объединиться перед лицом смертельной опасности. И, как потом выясняется, времени им отпущено совсем немного…




    Исходник: BDRemux 1080p
    Тип релиза: BDRip
    Контейнер: AVI

    Информация о видео: 672x368 (1,85:1), 23,976 fps, XviD ~ 836 kbps avg, 0.141 bit/pixel
    Информация о звуке: 48 kHz, MP3 2.0, 128 kbps

    Раздача от:
    MediaInfo

    Общее
    Полное имя : Park.Yurskogo.perioda.2.Zateryannyy.mir.1997.BDRip-896_New-team_by_AVP_Studio.avi
    Формат : AVI
    Формат/Информация : Audio Video Interleave
    Размер файла : 895 Мбайт
    Продолжительность : 2 ч. 8 м.
    Общий поток : 973 Кбит/сек
    Программа кодирования : VirtualDubModRus 1.5.10.2 (build 2542/release)
    Библиотека кодирования : VirtualDubMod build 2542/release

    Видео
    Идентификатор : 0
    Формат : MPEG-4 Visual
    Профиль формата : Advanced Simple@L5
    Параметр BVOP формата : 1
    Параметр QPel формата : Нет
    Параметр GMC формата : Без точки перехода
    Параметр матрицы формата : Выборочная
    Идентификатор кодека : XVID
    Идентификатор кодека/Подсказка : XviD
    Продолжительность : 2 ч. 8 м.
    Битрейт : 835 Кбит/сек
    Ширина : 672 пикселя
    Высота : 368 пикселей
    Соотношение сторон : 1,85:1
    Частота кадров : 23,976 кадра/сек
    Цветовое пространство : YUV
    Субдискретизация насыщенности : 4:2:0
    Битовая глубина : 8 бит
    Тип развёртки : Прогрессивная
    Метод сжатия : С потерями
    Бит/(Пиксели*Кадры) : 0.141
    Размер потока : 769 Мбайт (86%)
    Библиотека кодирования : XviD 73

    Аудио
    Идентификатор : 1
    Формат : MPEG Audio
    Версия формата : Version 1
    Профиль формата : Layer 3
    Идентификатор кодека : 55
    Идентификатор кодека/Подсказка : MP3
    Продолжительность : 2 ч. 8 м.
    Вид битрейта : Постоянный
    Битрейт : 128 Кбит/сек
    Каналы : 2 канала
    Частота : 48,0 КГц
    Метод сжатия : С потерями
    Размер потока : 118 Мбайт (13%)
    Выравнивание : Соединение по промежуткам
    Продолжительность промежутка : 42 мс. (1,00 видеокадр)
    Время предзагрузки промежутка : 504 мс.
    Библиотека кодирования : LAME3.99r
    Залил: AVPStudio
    Размер скачиваемого торрента: 895.28 MB (938768384 Bytes)


    Парк Юрского периода 2: Затерянный мир / The Lost World: Jurassic Park (1997) BDRip от New-Team | D скачать через торрент бесплатно
    загрузка...
    Рейтинг →
     (голосов: 1, оценка 5/5, голосовать можно 1 раз )

    Другие торренты по теме:

  • Парк Юрского периода / Jurassic Park (1993) | Blu-Ray Remux
  • Парк Юрского периода: Трилогия / Jurassic Park: Trilogy (1993-2001) BDRip 720p | P
  • Парк Юрского периода / Jurassic Park (1993) BDRip 1080p | 3D-Video | halfOU | D
  • Парк Юрского периода / Jurassic Park (1993) BDRip 720p
  • Парк Юрского периода 3 / Jurassic Park 3 (2001) HDRip | КПК скачать через торрент бесплатно
  • Парк Юрского Периода 2: Затерянный Мир / The Lost World: Jurassic Park (1997) HDRip | КПК скачать через торрент бесплатно
  • Парк Юрского периода / Jurassic Park (1993) HDRip | КПК скачать через торрент бесплатно
  • Парк Юрского периода: Трилогия / Jurassic Park: Trilogy (1993-2001) BDRip 1080p от 0ptimus | D, P, A, L1 скачать через торрент бесплатно


    • Комментарии (0):

      Информация

      Информация

        Посетители, находящиеся в группе Гости, не могут оставлять комментарии в данной новости.

        ↓ Меню



        ↓ Опрос

        А Вы добавили сайт в закладки?
        Да
        Не


        Top 10 за месяц (Фильмы)