.
Авторизация | Регистрация
Хочешь лучшие торренты? Добавь свой email!
Добавить
» » План побега / Escape Plan (2013) BDRip 1080p | US Transfer | D, Baibako, A | Лицензия скачать через торрент бесплатно




    План побега / Escape Plan (2013) BDRip 1080p | US Transfer | D, Baibako, A | Лицензия скачать через торрент бесплатно

    Опубликовал: Админ | Дата: 27-02-2015, 11:10 | Просмотров: 180



    Детально о кино
    Русское название: План побега
    Русское название в мировом прокате: Escape Plan
    Создали в: 2013
    Категория жанра: Боевик, триллер, детектив
    Снималось в: США, Atmosphere Entertainment MM LLC, Boies/Schiller Film Group, Emmett/Furla Films, Envision Entertainment Corporation, Spiderwood Productions,
    Главный режиссер: Микаэль Хофстрём
    Актеры: Сильвестр Сталлоне, Арнольд Шварценеггер, Джеймс Кэвизел, Фифти Сент, Винни Джонс, Винсент Д`Онофрио, Эми Райан, Сэм Нилл, Каитриона Бэлфи, Фаран Таир

    Сюжет фильма: Один из самых выдающихся мировых специалистов по системам безопасности соглашается на последнюю рисковую операцию: сбежать из суперсекретной высокотехнологичной тюрьмы, которую называют Гробницей. Преданный Рэй Бреслин вынужден прибегнуть к помощи напарника — заключенного Эмиля Ротмайера, чтобы разработать отчаянный и практически неосуществимый план побега из самой защищенной тюрьмы в мире!



    Файл
    Время просмотра: 01:55:35
    Качество фильма видео: BDRip 1080p

    Информация о видеокодек: MPEG-4 AVC/H.264
    Битрейт видео: ~ 12000 Kbps
    Размер скачиваемого торрента кадра: 1920x802
    Информация о звуке#1: Русский: DTS, 48.0 KHz, 6 ch, 1510 Kbps, CBR Дублированный (Лицензия)
    Информация о звуке#2: Украинский: DTS, 48.0 KHz, 6 ch, 1510 Kbps, CBR (Интерфильм)
    Информация о звуке#3: Русский: DTS, 48.0 KHz, 6 ch, 1510 Kbps, CBR Любительский одноголосый (Baibako)
    Информация о звуке#4: Русский: DTS, 48.0 KHz, 6 ch, 1510 Kbps, CBR Авторский одноголосый (А.Гаврилов)
    Информация о звуке#5: Aнглийский: DTS, 48.0 KHz, 6 ch, 1510 Kbps, CBR (Оригинал)
    Информация о звуке#6: Aнглийский: AC-3 Dolby Digital, 48.0 KHz, 2 ch, 224 Kbps, CBR (Deive)
    Информация о звуке#7: Aнглийский: AC-3 Dolby Digital, 48.0 KHz, 2 ch, 224 Kbps, CBR (Commentary)
    MI
    Формат : Matroska
    Версия формата : Version 4 / Version 2
    Размер файла : 16,1 Гбайт
    Продолжительность : 1 ч. 55 м.
    Общий поток : 20,0 Мбит/сек
    Дата кодирования : UTC 2014-06-08 18:07:41
    Программа кодирования : mkvmerge v6.9.1 (;Blue Panther;) 64bit built on Apr 18 2014 18:23:38
    Библиотека кодирования : libebml v1.3.0 + libmatroska v1.4.1
    Attachment : Yes

    Видео
    Идентификатор : 1
    Формат : AVC
    Формат/Информация : Advanced Video Codec
    Профиль формата : High@L4.1
    Параметр CABAC формата : Да
    Параметр ReFrames формата : 5 кадров
    Идентификатор кодека : V_MPEG4/ISO/AVC
    Продолжительность : 1 ч. 55 м.
    Битрейт : 12,0 Мбит/сек
    Ширина : 1920 пикселей
    Высота : 802 пикселя
    Соотношение сторон : 2,40:1
    Режим частоты кадров : Постоянный
    Частота кадров : 23,976 кадра/сек
    Цветовое пространство : YUV
    Субдискретизация насыщенности : 4:2:0
    Битовая глубина : 8 бит
    Тип развёртки : Прогрессивная
    Бит/(Пиксели*Кадры) : 0.325
    Размер потока : 9,37 Гбайт (58%)
    Библиотека кодирования : x264 core 140 r2377+40 929f149 tMod 8-bit@4:2:0 X86_64
    Настройки программы : cabac=1 / ref=5 / deblock=1:-3:-3 / analyse=0x3:0x113 / me=umh / subme=11 / psy=1 / fade_compensate=0.00 / psy_rd=1.15:0.00 / mixed_ref=1 / me_range=32 / chroma_me=1 / trellis=2 / 8x8dct=1 / cqm=0 / deadzone=21,11 / fast_pskip=0 / chroma_qp_offset=-2 / threads=18 / lookahead_threads=3 / sliced_threads=0 / nr=0 / decimate=0 / interlaced=0 / bluray_compat=0 / constrained_intra=0 / fgo=0 / bframes=8 / b_pyramid=2 / b_adapt=2 / b_bias=0 / direct=3 / weightb=1 / open_gop=0 / weightp=2 / keyint=240 / keyint_min=24 / scenecut=40 / intra_refresh=0 / rc=2pass / mbtree=0 / bitrate=12000 / ratetol=1.0 / qcomp=0.70 / qpmin=0:0:0 / qpmax=69:69:69 / qpstep=4 / cplxblur=20.0 / qblur=0.5 / ip_ratio=1.10 / pb_ratio=1.10 / aq=4:0.85 / aq-sensitivity=10.00 / aq-factor=1.00:1.00:1.00 / aq2=0 / aq3=0
    Язык : English
    Default : Да
    Forced : Нет

    Аудио #1
    Идентификатор : 2
    Формат : DTS
    Формат/Информация : Digital Theater Systems
    Режим : 16
    Параметр Endianness формата : Big
    Идентификатор кодека : A_DTS
    Продолжительность : 1 ч. 55 м.
    Вид битрейта : Постоянный
    Битрейт : 1509 Кбит/сек
    Каналы : 6 каналов
    Расположение каналов : Front: L C R, Side: L R, LFE
    Частота : 48,0 КГц
    Битовая глубина : 16 бит
    Метод сжатия : С потерями
    Размер потока : 1,22 Гбайт (8%)
    Заголовок : Дублированный (Лицензия)
    Язык : Russian
    Default : Нет
    Forced : Нет

    Аудио #2
    Идентификатор : 3
    Формат : DTS
    Формат/Информация : Digital Theater Systems
    Режим : 16
    Параметр Endianness формата : Big
    Идентификатор кодека : A_DTS
    Продолжительность : 1 ч. 55 м.
    Вид битрейта : Постоянный
    Битрейт : 1509 Кбит/сек
    Каналы : 6 каналов
    Расположение каналов : Front: L C R, Side: L R, LFE
    Частота : 48,0 КГц
    Битовая глубина : 24 бит
    Метод сжатия : С потерями
    Размер потока : 1,22 Гбайт (8%)
    Заголовок : Дублированный (Интерфильм)
    Язык : Ukrainian
    Default : Нет
    Forced : Нет

    Аудио #3
    Идентификатор : 4
    Формат : DTS
    Формат/Информация : Digital Theater Systems
    Режим : 16
    Параметр Endianness формата : Big
    Идентификатор кодека : A_DTS
    Продолжительность : 1 ч. 55 м.
    Вид битрейта : Постоянный
    Битрейт : 1509 Кбит/сек
    Каналы : 6 каналов
    Расположение каналов : Front: L C R, Side: L R, LFE
    Частота : 48,0 КГц
    Битовая глубина : 24 бит
    Метод сжатия : С потерями
    Размер потока : 1,22 Гбайт (8%)
    Заголовок : (Baibako)
    Язык : Russian
    Default : Нет
    Forced : Нет

    Аудио #4
    Идентификатор : 5
    Формат : DTS
    Формат/Информация : Digital Theater Systems
    Режим : 16
    Параметр Endianness формата : Big
    Идентификатор кодека : A_DTS
    Продолжительность : 1 ч. 55 м.
    Вид битрейта : Постоянный
    Битрейт : 1509 Кбит/сек
    Каналы : 6 каналов
    Расположение каналов : Front: L C R, Side: L R, LFE
    Частота : 48,0 КГц
    Битовая глубина : 24 бит
    Метод сжатия : С потерями
    Размер потока : 1,22 Гбайт (8%)
    Заголовок : Авторский (А.Гаврилов)
    Язык : Russian
    Default : Нет
    Forced : Нет

    Аудио #5
    Идентификатор : 6
    Формат : DTS
    Формат/Информация : Digital Theater Systems
    Режим : 16
    Параметр Endianness формата : Big
    Идентификатор кодека : A_DTS
    Продолжительность : 1 ч. 55 м.
    Вид битрейта : Постоянный
    Битрейт : 1509 Кбит/сек
    Каналы : 6 каналов
    Расположение каналов : Front: L C R, Side: L R, LFE
    Частота : 48,0 КГц
    Битовая глубина : 24 бит
    Метод сжатия : С потерями
    Размер потока : 1,22 Гбайт (8%)
    Язык : English
    Default : Нет
    Forced : Нет

    Аудио #6
    Идентификатор : 7
    Формат : AC-3
    Формат/Информация : Audio Coding 3
    Профиль формата : Dolby Digital
    Расширение режима : CM (complete main)
    Параметр Endianness формата : Big
    Идентификатор кодека : A_AC3
    Продолжительность : 1 ч. 55 м.
    Вид битрейта : Постоянный
    Битрейт : 224 Кбит/сек
    Каналы : 2 канала
    Расположение каналов : Front: L R
    Частота : 48,0 КГц
    Битовая глубина : 16 бит
    Метод сжатия : С потерями
    Размер потока : 185 Мбайт (1%)
    Заголовок : AC3 2.0 / 224 kbps / Deive
    Язык : English
    Default : Нет
    Forced : Нет

    Аудио #7
    Идентификатор : 8
    Формат : AC-3
    Формат/Информация : Audio Coding 3
    Профиль формата : Dolby Digital
    Расширение режима : CM (complete main)
    Параметр Endianness формата : Big
    Идентификатор кодека : A_AC3
    Продолжительность : 1 ч. 55 м.
    Вид битрейта : Постоянный
    Битрейт : 224 Кбит/сек
    Каналы : 2 канала
    Расположение каналов : Front: L R
    Частота : 48,0 КГц
    Битовая глубина : 16 бит
    Метод сжатия : С потерями
    Размер потока : 185 Мбайт (1%)
    Заголовок : AC3 2.0 / 224 kbps / Commentary with Director Mikael H?fstr?m and Co-Writer Miles Chapman
    Язык : English
    Default : Нет
    Forced : Нет

    Текст #1
    Идентификатор : 9
    Формат : UTF-8
    Идентификатор кодека : S_TEXT/UTF8
    Идентификатор кодека/Информация : UTF-8 Plain Text
    Заголовок : Full
    Язык : English
    Default : Нет
    Forced : Нет

    Текст #2
    Идентификатор : 10
    Формат : UTF-8
    Идентификатор кодека : S_TEXT/UTF8
    Идентификатор кодека/Информация : UTF-8 Plain Text
    Заголовок : SDH
    Язык : English
    Default : Нет
    Forced : Нет

    Текст #3
    Идентификатор : 11
    Формат : UTF-8
    Идентификатор кодека : S_TEXT/UTF8
    Идентификатор кодека/Информация : UTF-8 Plain Text
    Заголовок : SDH (Colored)
    Язык : English
    Default : Нет
    Forced : Нет

    Меню
    00:00:00.000 : en:Chapter 1
    00:06:33.643 : en:Chapter 2
    00:15:40.939 : en:Chapter 3
    00:19:50.439 : en:Chapter 4
    00:26:22.706 : en:Chapter 5
    00:33:08.111 : en:Chapter 6
    00:39:14.310 : en:Chapter 7
    00:45:41.697 : en:Chapter 8
    00:50:07.170 : en:Chapter 9
    00:58:59.494 : en:Chapter 10
    01:06:44.834 : en:Chapter 11
    01:13:51.134 : en:Chapter 12
    01:21:04.359 : en:Chapter 13
    01:27:58.523 : en:Chapter 14
    01:35:35.187 : en:Chapter 15
    01:42:14.878 : en:Chapter 16

    Семпл

    Скриншоты для ознакомления


    Размер скачиваемого торрента: 16.14 GB (17331159937 Bytes)

    План побега / Escape Plan (2013) BDRip 1080p | US Transfer | D, Baibako, A | Лицензия скачать через торрент бесплатно
    загрузка...
    Рейтинг →
     (голосов: 1, оценка 5/5, голосовать можно 1 раз )

    Другие торренты по теме:

  • План побега / Escape Plan (2013) HD 720p | L1 | Трейлер
  • План побега (2013)
  • План побега / Escape Plan (2013) CAMRip
  • OST - План побега / Escape Plan (2013) MP3
  • План побега / Escape Plan (2013) TS
  • План побега / Escape Plan (2013) WEBRip-AVC | Звук с TS
  • План побега / Escape Plan (2013) WEBRip | Звук с TS скачать через торрент бесплатно
  • План побега / Escape Plan (2013) HDTVRip | Звук с TS скачать через торрент бесплатно


    • Комментарии (0):

      Информация

      Информация

        Посетители, находящиеся в группе Гости, не могут оставлять комментарии в данной новости.

        ↓ Меню



        ↓ Опрос

        А Вы добавили сайт в закладки?
        Да
        Не


        Top 10 за месяц (Фильмы)