.
Авторизация | Регистрация
Хочешь лучшие торренты? Добавь свой email!
Добавить
» » Ужин с придурком / Le diner de cons (1998) BDRip-AVC | iPad | P скачать торрент бесплатно




    Ужин с придурком / Le diner de cons (1998) BDRip-AVC | iPad | P скачать торрент бесплатно

    Опубликовал: Админ | Дата: 27-02-2015, 11:10 | Просмотров: 201



    Ужин с придурком / Le diner de cons (1998) BDRip-AVC | iPad | P


    Русское название: Ужин с придурком
    Русское название в мировом прокате: Le diner de cons
    Создали в: 1998
    Категория жанра: комедия
    Главный режиссер: Франсис Вебер
    Актеры: Тьерри Лермитт, Жак Вильре, Франсис Юстер, Даниэль Прево, Александра Вандернот, Катрин Фро, Пьер-Арно Жюэн, Даниэль Мартен, Петронилла Мосс, Кристиан Перейра

    Сюжет фильма:
    Странные забавы бывают у людей, коих принято именовать - сливки общества . Например устраивать раз в неделю званый ужин и приглашать на него тех, кто по мнению всё тех же сливок полный придурок, а тому кто пригласил лучшего, конечно полагается приз, вот только придурки иногда бывают не только смешными, но и добрыми и человечными, чего не скажешь. об организаторах игры...



    Снималось в: Франция
    Киностудия: Gaumont, EFVE, TF1 Films Production

    Время просмотра: 01:20:00
    Перевод текста: Русский профессиональный многоголосый закадровый

    Файл
    Кодек для видео: H.264
    Качество фильма: BDRip 576p
    Информация о видео: 1024x438 (2.35:1) at 24.000 fps, AVC at 3100 kbps
    Информация о звуке:
    1: АAС 2.0 109 kbps - Русский профессиональный многоголосый закадровый
    Субтитры: отсутствуют

    MediaInfo

    General
    Complete name : C:CREATE264mod1outThe.Dinner.Game.1998.576p.P.m4v
    Format : MPEG-4
    Codec ID : M4V
    File size : 1.82 GiB
    Duration : 1h 20mn
    Overall bit rate mode : Variable
    Overall bit rate : 3 255 Kbps
    Movie name : Ужин с придурком
    Performer : Francis Veber
    Genre : Comedy
    ContentType : Short Film
    Deion : Богатый издатель раз в неделю крайне необычно развлекается с друзьями. Каждый приглашает на ужин придурка, над которым все издеваются, веселятся, а бедолага даже этого не понимает. Тот, кто приведет самого смешного придурка, выигрывает.
    Recorded date : UTC 1998-04-15 07:00:00
    Encoded date : UTC 2014-06-07 06:32:29
    Tagged date : UTC 2014-06-07 06:42:12
    Copyright : Gaumont, EFVE, TF1 Films Production
    Cover : Yes
    ContentRating : mpaa|PG-13|300|

    Title/Sort : Le D?ner de cons
    LongDeion : Богатый издатель раз в неделю крайне необычно развлекается с друзьями. Каждый приглашает на ужин придурка, над которым все издеваются, веселятся, а бедолага даже этого не понимает. Тот, кто приведет самого смешного придурка, выигрывает. По рекомендации знакомого Лермитт приглашает на ужин потенциального чемпиона в лице скромного налогового инспектора. Однако в этот день ему не повезло - на игре в гольф он сильно повредил спину, и ужин был отменен.
    AppleStoreCatalogID : 538308903
    Vendor : Apple:vendor_id:1998-57360

    Video
    ID : 1
    Format : AVC
    Format/Info : Advanced Video Codec
    Format profile : High@L4.1
    Format settings, CABAC : Yes
    Format settings, ReFrames : 10 frames
    Codec ID : avc1
    Codec ID/Info : Advanced Video Coding
    Duration : 1h 20mn
    Bit rate : 3 139 Kbps
    Maximum bit rate : 13.6 Mbps
    Width : 1 024 pixels
    Height : 438 pixels
    Display aspect ratio : 2.35:1
    Frame rate mode : Constant
    Frame rate : 24.000 fps
    Color space : YUV
    Chroma subsampling : 4:2:0
    Bit depth : 8 bits
    Scan type : Progressive
    Bits/(Pixel*Frame) : 0.292
    Stream size : 1.75 GiB (96%)
    Title : The.Dinner.Game.1998
    Language : English
    Encoded date : UTC 2014-06-07 06:32:29
    Tagged date : UTC 2014-06-07 06:32:38

    Audio
    ID : 2
    Format : AAC
    Format/Info : Advanced Audio Codec
    Format profile : LC
    Codec ID : 40
    Duration : 1h 20mn
    Bit rate mode : Variable
    Bit rate : 108 Kbps
    Maximum bit rate : 164 Kbps
    Channel(s) : 2 channels
    Channel positions : Front: L R
    Sampling rate : 48.0 KHz
    Compression mode : Lossy
    Stream size : 61.6 MiB (3%)
    Title : MVO
    Language : Russian
    Encoded date : UTC 2014-06-07 06:31:07
    Tagged date : UTC 2014-06-07 06:32:38

    Menu
    ID : 3
    Codec ID : text
    Duration : 1h 20mn
    Encoded date : UTC 2014-06-07 06:32:58
    Tagged date : UTC 2014-06-07 06:32:58
    Bit rate mode : CBR

    x264

    x264 info: frame I:1041 Avg QP:15.14 size:120141
    x264 info: frame P:23782 Avg QP:18.58 size: 42192
    x264 info: frame B:90378 Avg QP:22.23 size: 8350
    x264 info: consecutive B-frames: 1.8% 1.3% 5.5% 17.7% 25.3% 41.2% 4.2% 1.2% 0.5% 0.5% 0.4% 042% 0.2% 0.2% 0.1%
    x264 info: mb I I16..4: 17.8% 43.6% 38.7%
    x264 info: mb P I16..4: 0.6% 7.4% 3.0% P16..4: 25.7% 32.4% 18.8% 7.3% 1.7% skip: 3.2%
    x264 info: mb B I16..4: 0.0% 0.8% 0.3% B16..8: 35.2% 17.9% 3.1% direct: 5.7% skip:37.0% L0:37.6% L1:40.5% BI:21.9%
    x264 info: 8x8 transform intra:63.3% inter:38.7%
    x264 info: coded y,uvDC,uvAC intra: 93.8% 76.5% 52.9% inter: 25.7% 14.5% 6.9%
    x264 info: i16 v,h,dc,p: 13% 9% 20% 58%
    x264 info: i8 v,h,dc,ddl,ddr,vr,hd,vl,hu: 18% 9% 10% 8% 11% 12% 10% 11% 11%
    x264 info: i4 v,h,dc,ddl,ddr,vr,hd,vl,hu: 25% 9% 7% 8% 11% 11% 9% 10% 10%
    x264 info: i8c dc,h,v,p: 32% 25% 24% 19%
    x264 info: Weighted P-Frames: Y:2.0% UV:0.7%
    x264 info: ref P L0: 49.5% 12.7% 15.1% 7.0% 4.8% 3.6% 2.9% 1.7% 1.4% 1.3% 0.1% 0.0%
    x264 info: ref B L0: 86.0% 6.0% 3.3% 1.5% 1.1% 0.8% 0.6% 0.4% 0.2%
    x264 info: ref B L1: 95.8% 4.2%
    x264 info: kb/s:3138.54
    iTunes tags


    Sort Name: Le Diner de cons
    XID: Apple:vendor_id:1998-57360
    Content ID: 538308903
    Copyright: Gaumont, EFVE, TF1 Films Production
    ScreenWriters: Франсис Вебер
    Producers: Ален Пуаре
    Director: Франсис Вебер
    Cast: Тьерри Лермитт, Жак Вильре, Франсис Юстер, Даниэль Прево, Александра Вандернот, Катрин Фро, Пьер-Арно Жюэн, Даниэль Мартен, Петронилла Мосс, Кристиан Перейра
    Rating: PG-13
    Long Deion: Богатый издатель раз в неделю крайне необычно развлекается с друзьями. Каждый приглашает на ужин придурка, над которым все издеваются, веселятся, а бедолага даже этого не понимает. Тот, кто приведет самого смешного придурка, выигрывает. По рекомендации знакомого Лермитт приглашает на ужин потенциального чемпиона в лице скромного налогового инспектора. Однако в этот день ему не повезло - на игре в гольф он сильно повредил спину, и ужин был отменен.
    Deion: Богатый издатель раз в неделю крайне необычно развлекается с друзьями. Каждый приглашает на ужин придурка, над которым все издеваются, веселятся, а бедолага даже этого не понимает. Тот, кто приведет самого смешного придурка, выигрывает.
    Release Date: 1998-04-15T07:00:00Z
    Genre: Comedy
    Artist: Francis Veber
    Name: Ужин с придурком






    Залил: gekka
    Размер скачиваемого торрента: 1.82 GB (1953572254 Bytes)

    Ужин с придурком / Le diner de cons (1998) BDRip-AVC | iPad | P торрент скачать бесплатно
    загрузка...
    Рейтинг →
     (голосов: 1, оценка 3/5, голосовать можно 1 раз )

    Другие торренты по теме:

  • Ужин с убийством / Murder by Death (1972) HDTVRip-AVC от ~ F-Torrents ~
  • Ужин с придурками / Dinner for Schmucks (2010) HDRip-AVC от WazZzup | D


    • Комментарии (0):

      Информация

      Информация

        Посетители, находящиеся в группе Гости, не могут оставлять комментарии в данной новости.

        ↓ Меню



        ↓ Опрос

        А Вы добавили сайт в закладки?
        Да
        Не


        Top 10 за месяц (Фильмы)