.
Авторизация | Регистрация
Хочешь лучшие торренты? Добавь свой email!
Добавить
» » Глаз тигра / Eye of the Tiger (1986) DVDRip | P2 скачать торрент бесплатно




    Глаз тигра / Eye of the Tiger (1986) DVDRip | P2 скачать торрент бесплатно

    Опубликовал: Админ | Дата: 27-02-2015, 11:10 | Просмотров: 262



    Детально о кино
    Русское название: Глаз тигра
    Русское название в мировом прокате: Eye of the Tiger
    Создали в: 1986
    Категория жанра: боевик
    Главный режиссер: Ричард Сарафьян /Richard C. Sarafian
    Актеры: Гэри Бьюзи, Яфет Котто, Сеймур Кассель, Берт Ремсен, Уильям Смит, Кимберлин Браун

    Сюжет фильма:
    Вернувшись с войны во Вьетнаме, Бак Мэтьюс устроился прорабом на стройке в своём небольшом городишке в Техасе. Однажды после ссоры в баре, защищая свою жизнь, он случайно убил бандита и оказался в тюрьме. Там он спас жизнь одному из очень влиятельных мексиканских гангстеров Джемми, с которым вместе и вышел на свободу. Чтобы отблагодарить Бака, мексиканец предложил ему поехать вместе с ним в Мексику...




    Снималось в: США
    Время просмотра: 01:31:59
    Перевод текста: Профессиональный (двухголосый)

    Файл
    Кодек для видео: XviD
    Качество фильма: DVDRip исх. DVD5
    Информация о видео: 720x400 (1.80:1), 23.976 fps, XviD build 50 ~2074 kbps avg, 0.30 bit/pixel
    Информация о звуке: 48 kHz, AC3 Dolby Digital, 2/0 (L,R) ch, ~192.00 kbps avg

    Время Раздачи 11-00 до 16-00 + 20-00 до 03-00

    Скриншоты для ознакомления
    MediaInfo
    downloadEye_of_the_Tiger_1986.DVDRip.avi
    Формат : AVI
    Формат/Информация : Audio Video Interleave
    Размер файла : 1.46 GiB
    Продолжительность : 1h 31mn
    Общий поток : 2 276 Kbps
    Программа кодирования : VirtualDubMod 1.5.10.3 | www.virtualdub-fr.org || (build 2550/release)
    Библиотека кодирования : VirtualDubMod build 2550/release

    Video
    Идентификатор : 0
    Формат : MPEG-4 Visual
    Профиль формата : Advanced Simple@L5
    Параметр BVOP формата : 3
    Параметр QPel формата : No
    Параметр GMC формата : No warppoints
    Параметр матрицы формата : Default (H.263)
    Идентификатор кодека : XVID
    Идентификатор кодека/Подсказка : XviD
    Продолжительность : 1h 31mn
    Битрейт : 2 074 Kbps
    Ширина : 720 pixels
    Высота : 400 pixels
    Соотношение сторон : 16:9
    Частота кадров : 23.976 fps
    Цветовое пространство : YUV
    Субдискретизация насыщенности : 4:2:0
    Битовая глубина : 8 bits
    Тип развёртки : Progressive
    Метод сжатия : Lossy
    Бит/(Пиксели*Кадры) : 0.300
    Размер потока : 1.33 GiB (91%)
    Библиотека кодирования : XviD 1.2.1 (UTC 2008-12-04)

    Audio
    Идентификатор : 1
    Формат : AC-3
    Формат/Информация : Audio Coding 3
    Расширение режима : CM (complete main)
    Параметр Endianness формата : Big
    Идентификатор кодека : 2000
    Продолжительность : 1h 31mn
    Вид битрейта : Constant
    Битрейт : 192 Kbps
    Каналы : 2 channels
    Расположение каналов : Front: L R
    Частота : 48.0 KHz
    Битовая глубина : 16 bits
    Метод сжатия : Lossy
    Размер потока : 126 MiB (8%)
    Выравнивание : Split accross interleaves
    Продолжительность промежутка : 42 ms (1.00 video frame)
    Время предзагрузки промежутка : 500 ms


    Релиз подготовил:
    Залил: grom23
    Размер скачиваемого торрента: 1.46 GB (1570099200 Bytes)

    Глаз тигра / Eye of the Tiger (1986) DVDRip | P2 торрент скачать бесплатно
    загрузка...
    Рейтинг →
     (голосов: 1, оценка 5/5, голосовать можно 1 раз )

    Другие торренты по теме:

  • Синдбад и Глаз Тигра / Sinbad and the Eye of the Tiger (1977) DVDRip-AVC от Youtracker
  • Синдбад и Глаз Тигра / Sinbad and the Eye of the Tiger (1977) DVDRip от Youtracker
  • Глаз тигра / Eye of the Tiger (1986) DVDRip | A
  • Глаз тигра
  • Синбад и глаз тигра / Sinbad and the Eye of the Tiger (1977) BDRemux 1080p от MediaClub | P, A
  • Синбад и Глаз Тигра / Sinbad and the Eye of the Tiger скачать через торрент бесплатно
  • Синдбад и Глаз Тигра / Sinbad and the Eye of the Tiger (1977) BDRip 720p | P, A
  • Синбад и Глаз Тигра / Sinbad and the Eye of the Tiger (1977) BDRip 720p | Ger Transfer | P, A


    • Комментарии (0):

      Информация

      Информация

        Посетители, находящиеся в группе Гости, не могут оставлять комментарии в данной новости.

        ↓ Меню



        ↓ Опрос

        А Вы добавили сайт в закладки?
        Да
        Не


        Top 10 за месяц (Фильмы)