.
Авторизация | Регистрация
Хочешь лучшие торренты? Добавь свой email!
Добавить
» » Солнечный кризис / Solar Crisis (1990) DVDRip скачать через торрент бесплатно




    Солнечный кризис / Solar Crisis (1990) DVDRip скачать через торрент бесплатно

    Опубликовал: Админ | Дата: 27-02-2015, 11:10 | Просмотров: 248






    Снималось в: США, Япония
    Создали в: Asahi Breweries, Gakken Co. Ltd., Japan America Picture Company
    Категория жанра: Фантастика
    Создали в: 1990

    Время просмотра: 01:51:39

    Перевод текста: Авторский (Дохалов)

    Оригинальная аудиодорожка: Английская

    Главный режиссер: Ричард С. Сарафьян, Алан Смити

    Актеры: Тим Мэтисон, Чарлтон Хестон, Питер Бойл, Аннабел Шофилд, Корин Немек, Джек Пэлэнс, Пол Косло, Джимми Ф. Скэггс, Милт Коган, Стив Уэллс, Бренда Бэкки, Крис Нэш, Сильвана Гальярдо

    Сюжет: Из-за сильного потепления на Земле критическая ситуация: ресурсы на исходе, растительность почти исчезла. В борьбе за выживание грабежи и разбой стали привычным делом. Чтобы снизить солнечную активность, к светилу отправляется космический корабль со сверхмощной бомбой для реализации проекта Встречный пожар. Но в составе экипажа улетает диверсант — искусственный человек Делайла.



    Исходник: DVD5 R1

    Тип релиза: DVDRip

    Контейнер: AVI

    Информация о видео: XviD, 1476 Кбит/с, 640x480
    Информация о звуке: Русский, английский (АС3, 2 ch, 192 Кбит/с)

    MediaInfo
    Общее
    Общее
    Полное имя : D:залитьСолнечный кризис.avi
    Формат : AVI
    Формат/Информация : Audio Video Interleave
    Размер файла : 1,46 Гбайт
    Продолжительность : 1 ч. 51 м.
    Общий поток : 1874 Кбит/сек
    Программа кодирования : VirtualDubMod 1.5.10.2 (build 2540/release)
    Библиотека кодирования : VirtualDubMod build 2540/release

    Видео
    Идентификатор : 0
    Формат : MPEG-4 Visual
    Профиль формата : Advanced Simple@L5
    Параметр BVOP формата : 2
    Параметр QPel формата : Нет
    Параметр GMC формата : Без точки перехода
    Параметр матрицы формата : Default (MPEG)
    Идентификатор кодека : XVID
    Идентификатор кодека/Подсказка : XviD
    Продолжительность : 1 ч. 51 м.
    Битрейт : 1476 Кбит/сек
    Ширина : 640 пикселей
    Высота : 480 пикселей
    Соотношение сторон : 4:3
    Частота кадров : 23,976 кадра/сек
    Цветовое пространство : YUV
    Субдискретизация насыщенности : 4:2:0
    Битовая глубина : 8 бит
    Тип развёртки : Прогрессивная
    Метод сжатия : С потерями
    Бит/(Пиксели*Кадры) : 0.200
    Размер потока : 1,15 Гбайт (79%)
    Библиотека кодирования : XviD 1.2.1 (UTC 2008-12-04)

    Аудио #1
    Идентификатор : 1
    Формат : AC-3
    Формат/Информация : Audio Coding 3
    Расширение режима : CM (complete main)
    Параметр Endianness формата : Big
    Идентификатор кодека : 2000
    Продолжительность : 1 ч. 51 м.
    Вид битрейта : Постоянный
    Битрейт : 192 Кбит/сек
    Каналы : 2 канала
    Расположение каналов : Front: L R
    Частота : 48,0 КГц
    Битовая глубина : 16 бит
    Метод сжатия : С потерями
    Размер потока : 153 Мбайт (10%)
    Выравнивание : Разделение по промежуткам
    Продолжительность промежутка : 42 мс. (1,00 видеокадр)
    Время предзагрузки промежутка : 500 мс.

    Аудио #2
    Идентификатор : 2
    Формат : AC-3
    Формат/Информация : Audio Coding 3
    Профиль формата : Dolby Digital
    Расширение режима : CM (complete main)
    Параметр Endianness формата : Big
    Идентификатор кодека : 2000
    Продолжительность : 1 ч. 51 м.
    Вид битрейта : Постоянный
    Битрейт : 192 Кбит/сек
    Каналы : 2 канала
    Расположение каналов : Front: L R
    Частота : 48,0 КГц
    Битовая глубина : 16 бит
    Метод сжатия : С потерями
    Размер потока : 153 Мбайт (10%)
    Выравнивание : Разделение по промежуткам
    Продолжительность промежутка : 42 мс. (1,00 видеокадр)
    Время предзагрузки промежутка : 500 мс.





    Скриншоты для ознакомления


    Автор рипа:
    Залил: YArl
    Размер скачиваемого торрента: 1.46 GB (1569456128 Bytes)

    Солнечный кризис / Solar Crisis (1990) DVDRip скачать через торрент бесплатно
    загрузка...
    Рейтинг →
     (голосов: 1, оценка 3/5, голосовать можно 1 раз )

    Другие торренты по теме:

  • Сборник - Солнечный Заряд Хорошего Настроения (2013) MP3
  • VA - Солнечный музыкальный заряд. Сборник 4 (2013) MP3
  • Солнечный ожог / Sunburn (1979) HDTVRip-AVC от F-Torrents скачать через торрент бесплатно
  • Солнечный поток / Solar Flux Pocket (2013) Android скачать через торрент бесплатно
  • Сборник - Солнечный Хит-Парад 50х50 (2014) MP3 скачать через торрент бесплатно
  • VA - Солнечный удар. Горячие хиты лета (2014) МР3 скачать через торрент бесплатно
  • Тепловой удар / Солнечный удар / Heatstroke (2013) BDRemux 1080p от NovaLan скачать через торрент бесплатно
  • Green City: Go South / Экосити 3. Солнечный берег


    • Комментарии (0):

      Информация

      Информация

        Посетители, находящиеся в группе Гости, не могут оставлять комментарии в данной новости.

        ↓ Меню



        ↓ Опрос

        А Вы добавили сайт в закладки?
        Да
        Не


        Top 10 за месяц (Фильмы)