.
Авторизация | Регистрация
Хочешь лучшие торренты? Добавь свой email!
Добавить
» » Гангста Love / Rob the Mob (2014) BDRip 720p | Чистый звук скачать через торрент бесплатно




    Гангста Love / Rob the Mob (2014) BDRip 720p | Чистый звук скачать через торрент бесплатно

    Опубликовал: Админ | Дата: 27-02-2015, 11:10 | Просмотров: 231



    Гангста Love / Rob the Mob

    Создали в: 2014
    Снималось в: США
    Категория жанра: драма, криминал
    Время просмотра: 01:44:12
    Тип перевода: Профессиональное (дублированное) Чистый звук
    Главный режиссёр: Рэймонд Де Фелитта

    Актеры: Майкл Питт, Нина Арианда, Энди Гарсиа, Рэй Романо, Бёрт Янг, Гриффин Данн, Майкл Рисполи, Аида Туртурро, Фрэнк Уэйли, Кэти Мориарти

    Сюжет фильма: Парочка молодых влюбленных, мечтая скопить деньги на свадьбу, решает совершить серию дерзких ограблений клубов, где собираются мафиози. Их план прост — чтобы они ни натворили, мафия не будет жаловаться в полицию. Местные братаны не могут поверить своим глазам, когда их обчищают до нитки какие-то сопляки. Больше того, случайно, у них похищают важную улику, которой очень интересуется ФБР. Теперь за налетчиками начинается настоящая охота…



    Качество фильма: BDRip 720p
    Тип видео: MKV
    Информация о видео: MPEG-4 AVC / 6958 kb/s / 1280x720
    Информация о звуке #1: Russian / AC3 / 384 kb/s (6 ch) - Dub
    Информация о звуке #2: English / DTS / 1536 kb/s (6 ch) - Original
    Информация о звуке #3: English / AC3 / 640 kb/s (6 ch) - Original
    Субтитры: English
    Дополнительно: Сохранены оригинальные чаптеры как на Blu-ray
    Скачать: Sample

    Скриншоты для ознакомления

    МедиаИнфо
    Общее
    Уникальный идентификатор : 217469814702669925302127103957873245847 (0xA39B29AE274BEECDA0E349009FACBE97)
    Полное имя : D:Rob the Mob 2014 HDR BDRip 720p.mkv
    Формат : Matroska
    Версия формата : Version 4 / Version 2
    Размер файла : 7,05 Гбайт
    Продолжительность : 1 ч. 44 м.
    Режим общего битрейта : Переменный
    Общий поток : 9684 Кбит/сек
    Название фильма : Rob the Mob 2014 HDR BDRip 720p
    Дата кодирования : UTC 2014-06-06 00:30:43
    Программа кодирования : mkvmerge v6.9.1 (;Blue Panther;) 64bit built on Apr 18 2014 18:23:38
    Библиотека кодирования : libebml v1.3.0 + libmatroska v1.4.1
    Attachment : Yes

    Видео
    Идентификатор : 1
    Формат : AVC
    Формат/Информация : Advanced Video Codec
    Профиль формата : High@L4.1
    Параметр CABAC формата : Да
    Параметр ReFrames формата : 3 кадра
    Идентификатор кодека : V_MPEG4/ISO/AVC
    Продолжительность : 1 ч. 44 м.
    Вид битрейта : Переменный
    Битрейт : 6958 Кбит/сек
    Максимальный битрейт : 40,0 Мбит/сек
    Ширина : 1280 пикселей
    Высота : 720 пикселей
    Соотношение сторон : 16:9
    Режим частоты кадров : Постоянный
    Частота кадров : 23,976 кадра/сек
    Цветовое пространство : YUV
    Субдискретизация насыщенности : 4:2:0
    Битовая глубина : 8 бит
    Тип развёртки : Прогрессивная
    Бит/(Пиксели*Кадры) : 0.315
    Размер потока : 5,06 Гбайт (72%)
    Заголовок : Rob the Mob 2014 HDR BDRip 720p
    Библиотека кодирования : x264 core 142 r2431 ac76440
    Настройки программы : cabac=1 / ref=4 / deblock=1:0:0 / analyse=0x3:0x113 / me=hex / subme=7 / psy=1 / psy_rd=1.00:0.15 / mixed_ref=1 / me_range=16 / chroma_me=1 / trellis=1 / 8x8dct=1 / cqm=0 / deadzone=21,11 / fast_pskip=1 / chroma_qp_offset=-3 / threads=10 / lookahead_threads=1 / sliced_threads=0 / slices=4 / nr=0 / decimate=1 / interlaced=0 / bluray_compat=0 / constrained_intra=0 / bframes=3 / b_pyramid=1 / b_adapt=1 / b_bias=0 / direct=1 / weightb=1 / open_gop=0 / weightp=0 / keyint=23 / keyint_min=1 / scenecut=40 / intra_refresh=0 / rc_lookahead=23 / rc=crf / mbtree=1 / crf=16.5 / qcomp=0.60 / qpmin=10 / qpmax=51 / qpstep=4 / vbv_maxrate=40000 / vbv_bufsize=30000 / crf_max=0.0 / nal_hrd=vbr / filler=0 / ip_ratio=1.40 / aq=1:1.00
    Язык : English
    Default : Да
    Forced : Нет

    Аудио #1
    Идентификатор : 2
    Формат : AC-3
    Формат/Информация : Audio Coding 3
    Расширение режима : CM (complete main)
    Параметр Endianness формата : Big
    Идентификатор кодека : A_AC3
    Продолжительность : 1 ч. 44 м.
    Вид битрейта : Постоянный
    Битрейт : 384 Кбит/сек
    Каналы : 6 каналов
    Расположение каналов : Front: L C R, Side: L R, LFE
    Частота : 48,0 КГц
    Битовая глубина : 16 бит
    Метод сжатия : С потерями
    Размер потока : 286 Мбайт (4%)
    Заголовок : Dub
    Язык : Russian
    Default : Да
    Forced : Нет

    Аудио #2
    Идентификатор : 3
    Формат : DTS
    Формат/Информация : Digital Theater Systems
    Режим : 16
    Параметр Endianness формата : Big
    Идентификатор кодека : A_DTS
    Продолжительность : 1 ч. 44 м.
    Вид битрейта : Постоянный
    Битрейт : 1509 Кбит/сек
    Каналы : 6 каналов
    Расположение каналов : Front: L C R, Side: L R, LFE
    Частота : 48,0 КГц
    Битовая глубина : 24 бит
    Метод сжатия : С потерями
    Размер потока : 1,10 Гбайт (16%)
    Заголовок : Original
    Язык : English
    Default : Нет
    Forced : Нет

    Аудио #3
    Идентификатор : 4
    Формат : AC-3
    Формат/Информация : Audio Coding 3
    Расширение режима : CM (complete main)
    Параметр Endianness формата : Big
    Идентификатор кодека : A_AC3
    Продолжительность : 1 ч. 44 м.
    Вид битрейта : Постоянный
    Битрейт : 640 Кбит/сек
    Каналы : 6 каналов
    Расположение каналов : Front: L C R, Side: L R, LFE
    Частота : 48,0 КГц
    Битовая глубина : 16 бит
    Метод сжатия : С потерями
    Размер потока : 477 Мбайт (7%)
    Заголовок : Original
    Язык : English
    Default : Нет
    Forced : Нет

    Текст
    Идентификатор : 5
    Формат : UTF-8
    Идентификатор кодека : S_TEXT/UTF8
    Идентификатор кодека/Информация : UTF-8 Plain Text
    Заголовок : Full
    Язык : English
    Default : Нет
    Forced : Нет

    Меню
    00:00:00.000 : en:Chapter 01
    00:08:36.850 : en:Chapter 02
    00:16:10.887 : en:Chapter 03
    00:25:03.252 : en:Chapter 04
    00:32:48.341 : en:Chapter 05
    00:42:56.699 : en:Chapter 06
    00:50:36.700 : en:Chapter 07
    00:58:07.901 : en:Chapter 08
    01:07:19.869 : en:Chapter 09
    01:15:25.521 : en:Chapter 10
    01:23:28.587 : en:Chapter 11
    01:39:38.514 : en:Chapter 12

    Размер скачиваемого торрента: 7.05 GB (7568493326 Bytes)

    Гангста Love / Rob the Mob (2014) BDRip 720p | Чистый звук скачать через торрент бесплатно
    загрузка...
    Рейтинг →
     (голосов: 1, оценка 3/5, голосовать можно 1 раз )

    Другие торренты по теме:

  • Гангста Love (2014)
  • Гангста Love / Rob the Mob (2014) WEB-DL 1080p | Чистый звук
  • Гангста Love / Rob the Mob (2014) WEB-DL 720p | Чистый звук
  • Гангста Love / Rob the Mob (2014) WEB-DLRip | Чистый звук
  • Гангста Love / Rob the Mob (2014) WEB-DLRip | Чистый звук
  • Гангста Love / Rob the Mob (2014) HDRip-AVC | Чистый звук скачать через торрент бесплатно
  • Гангста Love / Rob the Mob (2014) BDRip 1080p | Чистый звук скачать через торрент бесплатно
  • Гангста Love / Rob the Mob (2014) HDRip | Чистый звук скачать через торрент бесплатно


    • Комментарии (0):

      Информация

      Информация

        Посетители, находящиеся в группе Гости, не могут оставлять комментарии в данной новости.

        ↓ Меню



        ↓ Опрос

        А Вы добавили сайт в закладки?
        Да
        Не


        Top 10 за месяц (Фильмы)