.
Авторизация | Регистрация
Хочешь лучшие торренты? Добавь свой email!
Добавить
» » Плачущий убийца / Crying Freeman (1995) BDRemux 1080p от MediaClub | P, A скачать через торрент бесплатно




    Плачущий убийца / Crying Freeman (1995) BDRemux 1080p от MediaClub | P, A скачать через торрент бесплатно

    Опубликовал: Админ | Дата: 27-02-2015, 11:10 | Просмотров: 208



    Детально о кино
    Русское название: Плачущий убийца
    Русское название в мировом прокате: Crying Freeman
    Создали в: 1995
    Категория жанра: Боевик, триллер, криминал
    Главный режиссер: Кристоф Ганс
    Актеры: Марк Дакаскос, Джули Кондра, Рей Дон Чонг, Байрон Манн, Масая Като, Чеки Карио, Мако, Кеван Охтци, Дэбби Подовски, Мюррэй Лоури

    Сюжет: Молодого художника Йо похищают и перепрограммируют в Освободителя — изощренного элитного убийцу, обладающего безграничными, почти фантастическими возможностями, способного ликвидировать даже главарей японской якудзы, главных противников его повелителей, Сынов Дракона. Красавица Эму оказывается случайной свидетельницей одного из убийств, совершенных Йо. Традиция убийц — освободителей требует, чтобы она погибла от его руки. Вместо этого, они влюбляются друг в друга и начинают одиссею страсти и насилия.



    Снималось в: Канада, Франция, Япония, США / August Entertainment, Crying Freeman Productions, Davis-Films
    Время просмотра: 01:41:56
    Перевод текста: Профессиональный многоголосый, авторский

    Файл
    Качество фильма: Blu-ray Remux 1080p
    Информация о видео: MPEG-4 AVC, 23053 Кбит/с, 1920x1080, 23.976 кадр/с
    Информация о звуке #1: Русский (DTS, 6 ch, 1509 Кбит/с) / Профессиональный многоголосый (R5)
    Информация о звуке #2: Русский (AC3, 2 ch, 192 Кбит/с) / Профессиональный многоголосый (ТК Россия)
    Информация о звуке #3: Русский (AC3, 2 ch, 192 Кбит/с) / Авторский одноголосый (Гаврилов)
    Информация о звуке #4: Украинский (AC3, 6 ch, 384 Кбит/с) / Профессиональный многоголосый ( ТК НТН)
    Информация о звуке #5: Английский (DTS-HD MA, 6 ch, 2273 Кбит/с)
    Субтитры: Русские, английские

    Скриншоты для ознакомления



    MI
    Общее
    Уникальный идентификатор : 198692338436012033132209794077900266871 (0x957AC09F5885EB18B41C314D5F69DD77)
    Полное имя : D:Mои раздачиPlachushchyi.ubyica.1995.BDRemux.1080p-MediaClub.mkv
    Формат : Matroska
    Версия формата : Version 4 / Version 2
    Размер файла : 20,3 Гбайт
    Продолжительность : 1 ч. 41 м.
    Режим общего битрейта : Переменный
    Общий поток : 28,5 Мбит/сек
    Название фильма : -=MediaClub-kaspr=-
    Дата кодирования : UTC 2014-06-06 10:49:55
    Программа кодирования : mkvmerge v6.9.1 (;Blue Panther;) 64bit built on Apr 18 2014 18:23:38
    Библиотека кодирования : libebml v1.3.0 + libmatroska v1.4.1

    Видео
    Идентификатор : 1
    Формат : AVC
    Формат/Информация : Advanced Video Codec
    Профиль формата : High@L4.1
    Параметр CABAC формата : Да
    Параметр ReFrames формата : 2 кадра
    Идентификатор кодека : V_MPEG4/ISO/AVC
    Продолжительность : 1 ч. 41 м.
    Вид битрейта : Переменный
    Ширина : 1920 пикселей
    Высота : 1080 пикселей
    Соотношение сторон : 16:9
    Режим частоты кадров : Постоянный
    Частота кадров : 23,976 кадра/сек
    Цветовое пространство : YUV
    Субдискретизация насыщенности : 4:2:0
    Битовая глубина : 8 бит
    Тип развёртки : Прогрессивная
    Заголовок : -=MediaClub-kaspr=-
    Default : Да
    Forced : Да

    Аудио #1
    Идентификатор : 2
    Формат : DTS
    Формат/Информация : Digital Theater Systems
    Режим : 16
    Параметр Endianness формата : Big
    Идентификатор кодека : A_DTS
    Продолжительность : 1 ч. 41 м.
    Вид битрейта : Постоянный
    Битрейт : 1509 Кбит/сек
    Каналы : 6 каналов
    Расположение каналов : Front: L C R, Side: L R, LFE
    Частота : 48,0 КГц
    Битовая глубина : 16 бит
    Метод сжатия : С потерями
    Размер потока : 1,07 Гбайт (5%)
    Заголовок : MVO (R5)
    Язык : Russian
    Default : Да
    Forced : Да

    Аудио #2
    Идентификатор : 3
    Формат : AC-3
    Формат/Информация : Audio Coding 3
    Профиль формата : Dolby Digital
    Расширение режима : CM (complete main)
    Параметр Endianness формата : Big
    Идентификатор кодека : A_AC3
    Продолжительность : 1 ч. 41 м.
    Вид битрейта : Постоянный
    Битрейт : 192 Кбит/сек
    Каналы : 2 канала
    Расположение каналов : Front: L R
    Частота : 48,0 КГц
    Битовая глубина : 16 бит
    Метод сжатия : С потерями
    Размер потока : 140 Мбайт (1%)
    Заголовок : MVO (ТК Россия)
    Язык : Russian
    Default : Нет
    Forced : Нет

    Аудио #3
    Идентификатор : 4
    Формат : AC-3
    Формат/Информация : Audio Coding 3
    Профиль формата : Dolby Digital
    Расширение режима : CM (complete main)
    Параметр Endianness формата : Big
    Идентификатор кодека : A_AC3
    Продолжительность : 1 ч. 41 м.
    Вид битрейта : Постоянный
    Битрейт : 192 Кбит/сек
    Каналы : 2 канала
    Расположение каналов : Front: L R
    Частота : 48,0 КГц
    Битовая глубина : 16 бит
    Метод сжатия : С потерями
    Размер потока : 140 Мбайт (1%)
    Заголовок : AVO (Гаврилов)
    Язык : Russian
    Default : Нет
    Forced : Нет

    Аудио #4
    Идентификатор : 5
    Формат : AC-3
    Формат/Информация : Audio Coding 3
    Расширение режима : CM (complete main)
    Параметр Endianness формата : Big
    Идентификатор кодека : A_AC3
    Продолжительность : 1 ч. 41 м.
    Вид битрейта : Постоянный
    Битрейт : 384 Кбит/сек
    Каналы : 6 каналов
    Расположение каналов : Front: L C R, Side: L R, LFE
    Частота : 48,0 КГц
    Битовая глубина : 16 бит
    Метод сжатия : С потерями
    Размер потока : 280 Мбайт (1%)
    Заголовок : MVO (НТН)
    Язык : Ukrainian
    Default : Нет
    Forced : Нет

    Аудио #5
    Идентификатор : 6
    Формат : DTS
    Формат/Информация : Digital Theater Systems
    Профиль формата : MA / Core
    Режим : 16
    Параметр Endianness формата : Big
    Идентификатор кодека : A_DTS
    Продолжительность : 1 ч. 41 м.
    Вид битрейта : Переменный
    Битрейт : Неизвестно / 1509 Кбит/сек
    Каналы : 6 каналов
    Расположение каналов : Front: L C R, Side: L R, LFE
    Частота : 48,0 КГц
    Битовая глубина : 16 бит
    Метод сжатия : Без потерь / Lossy
    Язык : English
    Default : Нет
    Forced : Нет

    Текст #1
    Идентификатор : 7
    Формат : UTF-8
    Идентификатор кодека : S_TEXT/UTF8
    Идентификатор кодека/Информация : UTF-8 Plain Text
    Язык : Russian
    Default : Нет
    Forced : Нет

    Текст #2
    Идентификатор : 8
    Формат : UTF-8
    Идентификатор кодека : S_TEXT/UTF8
    Идентификатор кодека/Информация : UTF-8 Plain Text
    Язык : English
    Default : Нет
    Forced : Нет

    Меню
    00:00:00.000 : en:Chapter 01
    00:03:34.964 : en:Chapter 02
    00:10:11.235 : en:Chapter 03
    00:11:53.087 : en:Chapter 04
    00:15:56.413 : en:Chapter 05
    00:20:16.089 : en:Chapter 06
    00:22:51.244 : en:Chapter 07
    00:26:30.714 : en:Chapter 08
    00:30:58.022 : en:Chapter 09
    00:33:44.397 : en:Chapter 10
    00:40:29.593 : en:Chapter 11
    00:45:50.581 : en:Chapter 12
    00:48:46.965 : en:Chapter 13
    00:50:47.294 : en:Chapter 14
    00:53:30.290 : en:Chapter 15
    00:59:04.415 : en:Chapter 16
    01:01:08.373 : en:Chapter 17
    01:06:21.143 : en:Chapter 18
    01:07:48.064 : en:Chapter 19
    01:11:23.153 : en:Chapter 20
    01:14:47.649 : en:Chapter 21
    01:20:24.945 : en:Chapter 22
    01:25:44.597 : en:Chapter 23
    01:35:17.002 : en:Chapter 24


    Релиз: |
    Залил: kaspr
    Размер скачиваемого торрента: 20.28 GB (21775969793 Bytes)

    Плачущий убийца / Crying Freeman (1995) BDRemux 1080p от MediaClub | P, A скачать через торрент бесплатно
    загрузка...
    Рейтинг →
     (голосов: 1, оценка 5/5, голосовать можно 1 раз )

    Другие торренты по теме:

  • Плачущий убийца / Crying Freeman (1995) DVDRip от Leon-masl | P2, P, A
  • Плачущий убийца / Crying Freeman (1995) BDRip 720p скачать через торрент бесплатно
  • Плачущий убийца / Crying Freeman (1995) BDRip 1080p от MediaClub | P, A скачать через торрент бесплатно
  • Плачущий убийца / Crying Freeman (1995) BDRip от Leon-masl | P, A скачать через торрент бесплатно
  • Плачущий убийца / Crying Freeman (1995) BDRip от Leon-masl | P скачать через торрент бесплатно
  • Плачущий убийца / Crying Freeman (1995) BDRip 1080p скачать через торрент бесплатно
  • Плачущий убийца / Crying Freeman (1995) BDRip-AVC от MediaClub | P, A скачать через торрент бесплатно
  • Плачущий убийца / Crying Freeman (1995) BDRip 720p by msltel | P, A


    • Комментарии (0):

      Информация

      Информация

        Посетители, находящиеся в группе Гости, не могут оставлять комментарии в данной новости.

        ↓ Меню



        ↓ Опрос

        А Вы добавили сайт в закладки?
        Да
        Не


        Top 10 за месяц (Фильмы)