.
Авторизация | Регистрация
Хочешь лучшие торренты? Добавь свой email!
Добавить
» » Провал во времени / Retroactive (1997) HDTVRip от New-Team | P, A скачать через торрент бесплатно




    Провал во времени / Retroactive (1997) HDTVRip от New-Team | P, A скачать через торрент бесплатно

    Опубликовал: Админ | Дата: 27-02-2015, 11:10 | Просмотров: 193


    Снималось в: США
    Создали в: Cohiba Pictures
    Категория жанра: фантастика, триллер, криминал, приключения
    Создали в: 1997
    Время просмотра: 01:31:11

    Перевод текста: Профессиональный (многоголосый, закадровый) СТС, VHS,
    Авторский (одноголосый закадровый) Юрий Сербин
    Оригинальная аудиодорожка: английский
    Субтитры подготовлены: русский, английский

    Главный режиссер: Луи Морно / Louis Morneau

    Актеры:
    Джеймс Белуши, Робби Тибо-младший, Джесси Боррего, Фрэнк Уэйли, Шэннон Уирри, Кайли Трэвис, Шерман Ховард, Гай Бойд...

    Сюжет:
    Под ярким солнцем Великой Американской равнины, на одинокой, продуваемой всеми ветрами автозаправочной станции происходит жестокое преступление. Эти, леденящие душу события происходят на глазах Карен, попутчицы человека, оказавшегося беспощадным убийцей. Спасаясь от его преследования, Карен вновь и вновь возвращается в прошлое, но всего лишь на 20 минут назад для того, чтобы предотвратить уже совершенное убийство. Один убийца! Один свидетель! Один шанс спастись!…




    Исходник: HDTV 1080i
    Тип релиза: HDTVRip
    Контейнер: AVI

    Информация о видео: 720x304 (2,35:1), 23,976 fps, XviD ~ 1256 kbps avg, 0.239 bit/pixel
    Информация о звуке: 48 kHz, Dolby Digital AC3 2.0, 192 kbps MVO СТС
    Информация о звуке: 48 kHz, Dolby Digital AC3 2.0, 192 kbps MVO VHS
    Информация о звуке: 48 kHz, Dolby Digital AC3 2.0, 192 kbps AVO Юрий Сербин
    Информация о звуке: 48 kHz, Dolby Digital AC3 5.1, 448 kbps Английский
    Субтитры: SoftSub (srt)

    Раздача от:
    MediaInfo

    Общее
    Полное имя : Proval.vo.vremeni.1997.HDTVRip_New-team_by_AVP_Studio.avi
    Формат : AVI
    Формат/Информация : Audio Video Interleave
    Размер файла : 1,47 Гбайт
    Продолжительность : 1 ч. 31 м.
    Общий поток : 2304 Кбит/сек
    Программа кодирования : VirtualDubModRus 1.5.10.2 (build 2542/release)
    Библиотека кодирования : VirtualDubMod build 2542/release

    Видео
    Идентификатор : 0
    Формат : MPEG-4 Visual
    Профиль формата : Advanced Simple@L5
    Параметр BVOP формата : 1
    Параметр QPel формата : Нет
    Параметр GMC формата : Без точки перехода
    Параметр матрицы формата : Выборочная
    Идентификатор кодека : XVID
    Идентификатор кодека/Подсказка : XviD
    Продолжительность : 1 ч. 31 м.
    Битрейт : 1256 Кбит/сек
    Ширина : 720 пикселей
    Высота : 304 пикселя
    Соотношение сторон : 2,35:1
    Частота кадров : 23,976 кадра/сек
    Цветовое пространство : YUV
    Субдискретизация насыщенности : 4:2:0
    Битовая глубина : 8 бит
    Тип развёртки : Прогрессивная
    Метод сжатия : С потерями
    Бит/(Пиксели*Кадры) : 0.239
    Размер потока : 819 Мбайт (55%)
    Библиотека кодирования : XviD 73

    Аудио #1
    Идентификатор : 1
    Формат : AC-3
    Формат/Информация : Audio Coding 3
    Расширение режима : CM (complete main)
    Параметр Endianness формата : Big
    Идентификатор кодека : 2000
    Продолжительность : 1 ч. 31 м.
    Вид битрейта : Постоянный
    Битрейт : 192 Кбит/сек
    Каналы : 2 канала
    Расположение каналов : Front: L R
    Частота : 48,0 КГц
    Битовая глубина : 16 бит
    Метод сжатия : С потерями
    Размер потока : 125 Мбайт (8%)
    Выравнивание : Разделение по промежуткам
    Продолжительность промежутка : 42 мс. (1,00 видеокадр)
    Время предзагрузки промежутка : 500 мс.

    Аудио #2
    Идентификатор : 2
    Формат : AC-3
    Формат/Информация : Audio Coding 3
    Расширение режима : CM (complete main)
    Параметр Endianness формата : Big
    Идентификатор кодека : 2000
    Продолжительность : 1 ч. 31 м.
    Вид битрейта : Постоянный
    Битрейт : 192 Кбит/сек
    Каналы : 2 канала
    Расположение каналов : Front: L R
    Частота : 48,0 КГц
    Битовая глубина : 16 бит
    Метод сжатия : С потерями
    Размер потока : 125 Мбайт (8%)
    Выравнивание : Разделение по промежуткам
    Продолжительность промежутка : 42 мс. (1,00 видеокадр)
    Время предзагрузки промежутка : 500 мс.

    Аудио #3
    Идентификатор : 3
    Формат : AC-3
    Формат/Информация : Audio Coding 3
    Расширение режима : CM (complete main)
    Параметр Endianness формата : Big
    Идентификатор кодека : 2000
    Продолжительность : 1 ч. 31 м.
    Вид битрейта : Постоянный
    Битрейт : 192 Кбит/сек
    Каналы : 2 канала
    Расположение каналов : Front: L R
    Частота : 48,0 КГц
    Битовая глубина : 16 бит
    Метод сжатия : С потерями
    Размер потока : 125 Мбайт (8%)
    Выравнивание : Разделение по промежуткам
    Продолжительность промежутка : 42 мс. (1,00 видеокадр)
    Время предзагрузки промежутка : 500 мс.

    Аудио #4
    Идентификатор : 4
    Формат : AC-3
    Формат/Информация : Audio Coding 3
    Расширение режима : CM (complete main)
    Параметр Endianness формата : Big
    Идентификатор кодека : 2000
    Продолжительность : 1 ч. 31 м.
    Вид битрейта : Постоянный
    Битрейт : 448 Кбит/сек
    Каналы : 6 каналов
    Расположение каналов : Front: L C R, Side: L R, LFE
    Частота : 48,0 КГц
    Битовая глубина : 16 бит
    Метод сжатия : С потерями
    Размер потока : 292 Мбайт (19%)
    Выравнивание : Разделение по промежуткам
    Продолжительность промежутка : 42 мс. (1,00 видеокадр)
    Время предзагрузки промежутка : 500 мс

    Скриншоты для ознакомления



    Залил: AVPStudio
    Размер скачиваемого торрента: 1.47 GB (1575828896 Bytes)

    Провал во времени / Retroactive (1997) HDTVRip от New-Team | P, A скачать через торрент бесплатно
    загрузка...
    Рейтинг →
     (голосов: 1, оценка 5/5, голосовать можно 1 раз )

    Другие торренты по теме:

  • Провал во времени / Retroactive (1997) HDTVRip
  • Провал во времени / Retroactive (1997) DVDRip
  • Провал во времени / Retroactive (1997) HDTVRip-AVC от New-Team | P скачать через торрент бесплатно
  • Провал во времени / Retroactive (1997) HDTVRip от New-Team | P скачать через торрент бесплатно
  • Немезида 3: Провал во времени / Nemesis III: Time Lapse (1996) HDRip | Сербин
  • Немезида 3: Провал во времени / Nemesis III: Prey Harder (1996) BDRip-AVC от MediaClub скачать через торрент бесплатно
  • Немезида 3: Провал во времени / Nemesis III: Prey Harder
  • Провал во времени / Retroactive (1997) BDRip-AVC от k.e.n | P, P2, A


    • Комментарии (0):

      Информация

      Информация

        Посетители, находящиеся в группе Гости, не могут оставлять комментарии в данной новости.

        ↓ Меню



        ↓ Опрос

        А Вы добавили сайт в закладки?
        Да
        Не


        Top 10 за месяц (Фильмы)