.
Авторизация | Регистрация
Хочешь лучшие торренты? Добавь свой email!
Добавить
» » Блондинка в эфире / Walk of Shame (2014) BDRip 1080p | Чистый звук скачать через торрент бесплатно




    Блондинка в эфире / Walk of Shame (2014) BDRip 1080p | Чистый звук скачать через торрент бесплатно

    Опубликовал: Админ | Дата: 27-02-2015, 11:10 | Просмотров: 177



    Детально о кино
    Русское название: Блондинка в эфире
    Русское название в мировом прокате: Walk of Shame
    Создали в: 2014
    Категория жанра: комедия
    Главный режиссер: Стивен Брилл
    Актеры: Элизабет Бэнкс, Джеймс Марсден, Джиллиан Джейкобс, Сара Райт, Итан Сапли, Билли Барр, Кен Давитян, Ларри Джиллиард мл., Альфонсо МакОли, Дэвон МакДональд

    Сюжет фильма: После провала собеседования на перспективную должность на Лос-Анджелесском телевидении амбициозная телеведущая с горя уходит в загул. Проведя бурную ночь, она приходит в себя утром на улице, не имея при себе ни денег, ни паспорта, ни машины… Есть только мобильный, в котором она читает смс: Поздравляем! Вы приняты на работу. Сегодня первый эфир.



    Снималось в: США
    Время просмотра: 01:34:28
    Перевод текста: Профессиональный (полное дублирование) - Чистый звук

    Файл
    Качество фильма: BDRip 1080p
    Тип видео: MKV
    Информация о видео: MPEG4/AVC, 1920х800 (2.40:1), 10.5 Мбит/сек, 23.976 кадра/сек
    Информация о звуке 1: AC3, 6 каналов, 384 Кбит/сек | Русский
    Информация о звуке 2: AC3, 6 каналов, 640 Кбит/сек | Английский
    Субтитры: Английские (полные, SDH)
    Навигация по главам: Есть

    MediaInfo:
    Общее
    Уникальный идентификатор : 246942107393653532130354638358780417048 (0xB9C751E60309DF83B2C2B4DB911D9418)
    Полное имя : Walk of Shame. (2014) BDRip 1080p.mkv
    Формат : Matroska
    Версия формата : Version 2
    Размер файла : 7,59 Гбайт
    Продолжительность : 1 ч. 34 м.
    Общий поток : 11,5 Мбит/сек
    Название фильма : Walk of Shame. 2014
    Дата кодирования : UTC 2014-06-06 09:14:28
    Программа кодирования : mkvmerge v5.8.0 (;No Sleep / Pillow;) built on Sep 2 2012 15:37:04
    Библиотека кодирования : libebml v1.2.3 + libmatroska v1.3.0

    Видео
    Идентификатор : 1
    Формат : AVC
    Формат/Информация : Advanced Video Codec
    Профиль формата : High@L4.1
    Параметр CABAC формата : Да
    Параметр ReFrames формата : 5 кадров
    Идентификатор кодека : V_MPEG4/ISO/AVC
    Продолжительность : 1 ч. 34 м.
    Битрейт : 10,5 Мбит/сек
    Ширина : 1920 пикселей
    Высота : 800 пикселей
    Соотношение сторон : 2,40:1
    Режим частоты кадров : Постоянный
    Частота кадров : 23,976 кадра/сек
    Цветовое пространство : YUV
    Субдискретизация насыщенности : 4:2:0
    Битовая глубина : 8 бит
    Тип развёртки : Прогрессивная
    Бит/(Пиксели*Кадры) : 0.285
    Размер потока : 6,76 Гбайт (89%)
    Заголовок : CHD
    Библиотека кодирования : x264 core 138 r2358 9e941d1
    Настройки программы : cabac=1 / ref=5 / deblock=1:-3:-3 / analyse=0x3:0x113 / me=umh / subme=11 / psy=1 / psy_rd=1.05:0.10 / mixed_ref=1 / me_range=48 / chroma_me=1 / trellis=2 / 8x8dct=1 / cqm=0 / deadzone=21,11 / fast_pskip=0 / chroma_qp_offset=-2 / threads=18 / lookahead_threads=1 / sliced_threads=0 / nr=0 / decimate=1 / interlaced=0 / bluray_compat=0 / constrained_intra=0 / bframes=6 / b_pyramid=2 / b_adapt=2 / b_bias=0 / direct=3 / weightb=1 / open_gop=0 / weightp=2 / keyint=250 / keyint_min=23 / scenecut=40 / intra_refresh=0 / rc_lookahead=40 / rc=2pass / mbtree=0 / bitrate=10497 / ratetol=2.0 / qcomp=0.70 / qpmin=0 / qpmax=69 / qpstep=4 / cplxblur=20.0 / qblur=0.5 / vbv_maxrate=40000 / vbv_bufsize=30000 / nal_hrd=none / ip_ratio=1.40 / pb_ratio=1.30 / aq=2:1.00
    Язык : English
    Default : Да
    Forced : Нет

    Аудио #1
    Идентификатор : 2
    Формат : AC-3
    Формат/Информация : Audio Coding 3
    Расширение режима : CM (complete main)
    Параметр Endianness формата : Big
    Идентификатор кодека : A_AC3
    Продолжительность : 1 ч. 34 м.
    Вид битрейта : Постоянный
    Битрейт : 384 Кбит/сек
    Каналы : 6 каналов
    Расположение каналов : Front: L C R, Side: L R, LFE
    Частота : 48,0 КГц
    Битовая глубина : 16 бит
    Метод сжатия : С потерями
    Размер потока : 259 Мбайт (3%)
    Заголовок : Line
    Язык : Russian
    Default : Да
    Forced : Нет

    Аудио #2
    Идентификатор : 3
    Формат : AC-3
    Формат/Информация : Audio Coding 3
    Расширение режима : CM (complete main)
    Параметр Endianness формата : Big
    Идентификатор кодека : A_AC3
    Продолжительность : 1 ч. 34 м.
    Вид битрейта : Постоянный
    Битрейт : 640 Кбит/сек
    Каналы : 6 каналов
    Расположение каналов : Front: L C R, Side: L R, LFE
    Частота : 48,0 КГц
    Битовая глубина : 16 бит
    Метод сжатия : С потерями
    Размер потока : 432 Мбайт (6%)
    Заголовок : Eng
    Язык : English
    Default : Нет
    Forced : Нет

    Текст #1
    Идентификатор : 4
    Формат : UTF-8
    Идентификатор кодека : S_TEXT/UTF8
    Идентификатор кодека/Информация : UTF-8 Plain Text
    Заголовок : Full
    Язык : English
    Default : Нет
    Forced : Нет

    Текст #2
    Идентификатор : 5
    Формат : UTF-8
    Идентификатор кодека : S_TEXT/UTF8
    Идентификатор кодека/Информация : UTF-8 Plain Text
    Заголовок : SDH
    Язык : English
    Default : Нет
    Forced : Нет

    Меню
    00:00:00.000 : en:00:00:00.000
    00:02:27.689 : en:00:02:27.689
    00:07:23.735 : en:00:07:23.735
    00:12:20.531 : en:00:12:20.531
    00:17:16.702 : en:00:17:16.702
    00:22:08.118 : en:00:22:08.118
    00:26:53.737 : en:00:26:53.737
    00:32:04.464 : en:00:32:04.464
    00:39:18.898 : en:00:39:18.898
    00:46:26.409 : en:00:46:26.409
    00:51:02.977 : en:00:51:02.977
    00:54:24.678 : en:00:54:24.678
    00:59:49.211 : en:00:59:49.211
    01:05:01.523 : en:01:05:01.523
    01:07:40.223 : en:01:07:40.223
    01:11:44.634 : en:01:11:44.634
    01:15:06.252 : en:01:15:06.252
    01:22:58.473 : en:01:22:58.473
    01:27:27.701 : en:01:27:27.701
    01:29:34.703 : en:01:29:34.703

    Скриншоты для ознакомления:


    Релиз подготовил:
    Размер скачиваемого торрента: 7.59 GB (8148208308 Bytes)

    Блондинка в эфире / Walk of Shame (2014) BDRip 1080p | Чистый звук скачать через торрент бесплатно
    загрузка...
    Рейтинг →
     (голосов: 1, оценка 4/5, голосовать можно 1 раз )

    Другие торренты по теме:

  • Блондинка в законе 2: Красное, белое и блондинка / Legally Blonde 2: Red, White Blonde (2003) BDRip-AVC от ExKinoRay
  • Блондинка в эфире (2014) скачать через торрент бесплатно
  • Блондинка в эфире / Walk of Shame (2014) WEB-DL 720p | Чистый звук скачать через торрент бесплатно
  • Блондинка в эфире / Walk of Shame (2014) WEB-DLRip | Чистый звук скачать через торрент бесплатно
  • Блондинка в эфире / Walk of Shame (2014) WEB-DLRip | Чистый звук скачать через торрент бесплатно
  • Блондинка в эфире / Walk of Shame (2014) WEB-DLRip-AVC | Чистый звук
  • Блондинка в эфире / Walk of Shame (2014) WEB-DLRip-AVC от ExKinoRay | Чистый звук
  • Блондинка в эфире / Walk of Shame (2014) WEB-DLRip от Scarabey | D | Чистый звук скачать через торрент бесплатно


    • Комментарии (0):

      Информация

      Информация

        Посетители, находящиеся в группе Гости, не могут оставлять комментарии в данной новости.

        ↓ Меню



        ↓ Опрос

        А Вы добавили сайт в закладки?
        Да
        Не


        Top 10 за месяц (Фильмы)