.
Авторизация | Регистрация
Хочешь лучшие торренты? Добавь свой email!
Добавить
» » Терминатор / The Terminator (1984) BDRip 720p | D | Remastered скачать через торрент бесплатно




    Терминатор / The Terminator (1984) BDRip 720p | D | Remastered скачать через торрент бесплатно

    Опубликовал: Админ | Дата: 27-02-2015, 11:10 | Просмотров: 248



    Детально о кино
    Русское название: Терминатор
    Русское название в мировом прокате: The Terminator
    Создали в: 1984
    Категория жанра: Фантастика, боевик
    Главный режиссер: Джеймс Кэмерон
    Актеры: Арнольд Шварценеггер, Майкл Бьен, Линда Хэмилтон, Пол Уинфилд, Лэнс Хенриксен, Рик Россови, Бесс Мотта, Эрл Боэн,

    Сюжет фильма: История противостояния солдата Кайла Риза и киборга-терминатора, прибывших в 1984-й год из пост-апокалиптического будущего, где миром правят машины-убийцы, а человечество находится на грани вымирания. Цель киборга: убить девушку по имени Сара Коннор, чей ещё нерождённый сын к 2029 году выиграет войну человечества с машинами. Цель Риза: спасти Сару и остановить Терминатора любой ценой.



    Снималось в: США
    Время просмотра: 01:47:25
    Перевод текста: Дублированный, Blu-ray CEE

    Файл
    Кодек для видео: H.264
    Качество фильма: BDRip 720p
    Информация о видео: 1280x694 (1.844); 12000 Kbps; 23.976 fps; 0.563 bit/pixel
    Информация о звуке 1: Russian / DTS Audio / 5.1 / 48 kHz / 768 kbps / Дублированный, Blu-ray CEE
    Информация о звуке 2: English / DTS Audio / 5.1 / 48 kHz / 1536 kbps
    Субтитры: Russian (forced), Russian (Blu-ray CEE), Russian (DDV), Russian (Пучков), Russian, English, etc.

    Скриншоты для ознакомления
    MI
    General
    Unique ID : 184266566361982884574254610342894347659 (0x8AA0732579FC207283E222105513A58B)
    Complete name : The.Terminator.1984.720p.BluRay.DTS.x264-Skazhutin.mkv
    Format : Matroska
    Format version : Version 2
    File size : 10.7 GiB
    Duration : 1h 47mn
    Overall bit rate : 14.3 Mbps
    Movie name : The Terminator (1984)
    Encoded date : UTC 2012-10-08 09:55:12
    Writing application : mkvmerge v5.8.0 (;No Sleep / Pillow;) built on Sep 2 2012 15:37:04
    Writing library : libebml v1.2.3 + libmatroska v1.3.0
    Attachment : Yes / Yes

    Video
    ID : 1
    Format : AVC
    Format/Info : Advanced Video Codec
    Format profile : High@L4.1
    Format settings, CABAC : Yes
    Format settings, ReFrames : 9 frames
    Codec ID : V_MPEG4/ISO/AVC
    Duration : 1h 47mn
    Bit rate : 12.0 Mbps
    Width : 1 280 pixels
    Height : 694 pixels
    Display aspect ratio : 1.85:1
    Frame rate mode : Constant
    Frame rate : 23.976 fps
    Color space : YUV
    Chroma subsampling : 4:2:0
    Bit depth : 8 bits
    Scan type : Progressive
    Bits/(Pixel*Frame) : 0.563
    Stream size : 8.80 GiB (82%)
    Writing library : x264 core 128 r2216kMod 198a7ea
    Encoding settings : cabac=1 / ref=9 / deblock=1:-3:-3 / analyse=0x3:0x113 / me=umh / subme=11 / psy=1 / fade_compensate=0.00 / psy_rd=1.00:0.00 / mixed_ref=1 / me_range=48 / chroma_me=1 / trellis=2 / 8x8dct=1 / cqm=0 / deadzone=21,11 / fast_pskip=0 / chroma_qp_offset=-2 / threads=12 / lookahead_threads=2 / sliced_threads=0 / nr=0 / decimate=0 / interlaced=0 / bluray_compat=0 / constrained_intra=0 / bframes=9 / b_pyramid=2 / b_adapt=2 / b_bias=0 / direct=3 / weightb=1 / open_gop=0 / weightp=2 / keyint=250 / keyint_min=23 / scenecut=40 / intra_refresh=0 / rc_lookahead=40 / rc=2pass / mbtree=0 / bitrate=12000 / ratetol=1.0 / qcomp=0.75 / qpmin=0 / qpmax=69 / qpstep=4 / cplxblur=20.0 / qblur=0.5 / vbv_maxrate=50000 / vbv_bufsize=62500 / nal_hrd=none / ip_ratio=1.20 / pb_ratio=1.10 / aq=1:1.00
    Language : English
    Default : Yes
    Forced : No
    Matrix coefficients : BT.709

    Audio #1
    ID : 2
    Format : DTS
    Format/Info : Digital Theater Systems
    Codec ID : A_DTS
    Duration : 1h 47mn
    Bit rate mode : Constant
    Bit rate : 755 Kbps
    Channel(s) : 6 channels
    Channel positions : Front: L C R, Side: L R, LFE
    Sampling rate : 48.0 KHz
    Bit depth : 24 bits
    Compression mode : Lossy
    Stream size : 580 MiB (5%)
    Title : DTS 5.1 @ 768 kbps - Дублированный, Blu-ray CEE
    Language : Russian
    Default : Yes
    Forced : No

    Audio #2
    ID : 3
    Format : DTS
    Format/Info : Digital Theater Systems
    Codec ID : A_DTS
    Duration : 1h 47mn
    Bit rate mode : Constant
    Bit rate : 1 510 Kbps
    Channel(s) : 6 channels
    Channel positions : Front: L C R, Side: L R, LFE
    Sampling rate : 48.0 KHz
    Bit depth : 24 bits
    Compression mode : Lossy
    Stream size : 1.13 GiB (11%)
    Title : DTS 5.1 @ 1536 kbps
    Language : English
    Default : No
    Forced : No

    Text #1
    ID : 4
    Format : UTF-8
    Codec ID : S_TEXT/UTF8
    Codec ID/Info : UTF-8 Plain Text
    Title : forced
    Language : Russian
    Default : Yes
    Forced : No

    Text #2
    ID : 5
    Format : UTF-8
    Codec ID : S_TEXT/UTF8
    Codec ID/Info : UTF-8 Plain Text
    Title : Blu-ray CEE
    Language : Russian
    Default : No
    Forced : No

    Text #3
    ID : 6
    Format : UTF-8
    Codec ID : S_TEXT/UTF8
    Codec ID/Info : UTF-8 Plain Text
    Title : Пучков
    Language : Russian
    Default : No
    Forced : No

    Text #4
    ID : 7
    Format : UTF-8
    Codec ID : S_TEXT/UTF8
    Codec ID/Info : UTF-8 Plain Text
    Title : DDV
    Language : Russian
    Default : No
    Forced : No

    Text #5
    ID : 8
    Format : UTF-8
    Codec ID : S_TEXT/UTF8
    Codec ID/Info : UTF-8 Plain Text
    Language : Russian
    Default : No
    Forced : No

    Text #6
    ID : 9
    Format : UTF-8
    Codec ID : S_TEXT/UTF8
    Codec ID/Info : UTF-8 Plain Text
    Language : English
    Default : No
    Forced : No

    Text #7
    ID : 10
    Format : UTF-8
    Codec ID : S_TEXT/UTF8
    Codec ID/Info : UTF-8 Plain Text
    Language : Bulgarian
    Default : No
    Forced : No

    Text #8
    ID : 11
    Format : UTF-8
    Codec ID : S_TEXT/UTF8
    Codec ID/Info : UTF-8 Plain Text
    Language : Croatian
    Default : No
    Forced : No

    Text #9
    ID : 12
    Format : UTF-8
    Codec ID : S_TEXT/UTF8
    Codec ID/Info : UTF-8 Plain Text
    Language : Czech
    Default : No
    Forced : No

    Text #10
    ID : 13
    Format : UTF-8
    Codec ID : S_TEXT/UTF8
    Codec ID/Info : UTF-8 Plain Text
    Language : Spanish
    Default : No
    Forced : No

    Text #11
    ID : 14
    Format : UTF-8
    Codec ID : S_TEXT/UTF8
    Codec ID/Info : UTF-8 Plain Text
    Language : Greek
    Default : No
    Forced : No

    Text #12
    ID : 15
    Format : UTF-8
    Codec ID : S_TEXT/UTF8
    Codec ID/Info : UTF-8 Plain Text
    Language : Hungarian
    Default : No
    Forced : No

    Text #13
    ID : 16
    Format : UTF-8
    Codec ID : S_TEXT/UTF8
    Codec ID/Info : UTF-8 Plain Text
    Language : Italian
    Default : No
    Forced : No

    Text #14
    ID : 17
    Format : UTF-8
    Codec ID : S_TEXT/UTF8
    Codec ID/Info : UTF-8 Plain Text
    Language : Polish
    Default : No
    Forced : No

    Text #15
    ID : 18
    Format : UTF-8
    Codec ID : S_TEXT/UTF8
    Codec ID/Info : UTF-8 Plain Text
    Language : Portuguese
    Default : No
    Forced : No

    Text #16
    ID : 19
    Format : UTF-8
    Codec ID : S_TEXT/UTF8
    Codec ID/Info : UTF-8 Plain Text
    Language : Romanian
    Default : No
    Forced : No

    Text #17
    ID : 20
    Format : UTF-8
    Codec ID : S_TEXT/UTF8
    Codec ID/Info : UTF-8 Plain Text
    Language : Slovenian
    Default : No
    Forced : No

    Text #18
    ID : 21
    Format : UTF-8
    Codec ID : S_TEXT/UTF8
    Codec ID/Info : UTF-8 Plain Text
    Language : Turkish
    Default : No
    Forced : No

    Menu
    00:00:00.000 : en:2029 a.D./Main Title
    00:03:32.253 : en:The Arrival
    00:05:18.151 : en:New Wardrobe
    00:06:31.015 : en:Second Visitor
    00:11:38.322 : en:Hard-Working Girl
    00:13:45.324 : en:Gun Men
    00:15:11.827 : en:Sarah Connor?
    00:20:44.618 : en:Phone Book Rampage
    00:22:49.618 : en:Last One Left
    00:29:49.787 : en:Uninvited Guest
    00:33:15.034 : en:The Last Day of Disco
    00:38:47.116 : en:Running Commentary
    00:41:25.191 : en:The Possible Future
    00:47:46.488 : en:Drive!
    00:50:39.995 : en:Safety in Uniforms
    00:54:41.569 : en:Self-Service
    00:59:04.916 : en:I;ll Be Back!
    01:03:53.538 : en:Mother of the Future
    01:09:37.548 : en:The War to Come
    01:14:08.986 : en:Answering Machine
    01:15:00.078 : en:Not Mom
    01:17:18.800 : en:Recipe for Disaster
    01:18:30.372 : en:Present for the Future
    01:23:00.892 : en:Hot Pursuit
    01:26:24.721 : en:Run Over By a Truck
    01:30:22.583 : en:Hunk O; Burning Steel
    01:32:19.367 : en:Factory Foolery
    01:35:52.121 : en:Head Without Heels
    01:39:53.862 : en:Survivor
    01:40:18.721 : en:Tapes for John
    01:40:49.334 : en:A Storm Is Coming
    01:43:12.895 : en:End Credits
    x264
    x264 info: frame I:983 Avg QP:16.61 size:134969
    x264 info: frame P:34938 Avg QP:17.59 size: 78495
    x264 info: frame B:118593 Avg QP:18.27 size: 57222

    Размер скачиваемого торрента: 10.71 GB (11499156358 Bytes)

    Терминатор / The Terminator (1984) BDRip 720p | D | Remastered скачать через торрент бесплатно
    загрузка...
    Рейтинг →
     (голосов: 1, оценка 3/5, голосовать можно 1 раз )

    Другие торренты по теме:

  • Терминатор 2: Судный день / Terminator 2: Judgment Day (1991) BDRip 1080p от Ash61 | 3D-Video | halfOU | P, A | Extended Special Edition | Remastered
  • Терминатор: Да придёт спаситель / Terminator Salvation (2009) HDRip от Scarabey | D | Театральная версия
  • OST - Терминатор / Terminator Soundtrack Quintus (1984-2009) MP3
  • Терминатор 3: Восстание машин / Terminator 3: Rise of the Machines (2003) BD-Remux
  • Терминатор 2: Судный день / Terminator 2: Judgment Day (1991) Blu-Ray
  • Терминатор 2: Два брата терминавта или день подводника / Terminator 2: Judgment Day (1991) HDRip
  • Терминатор: Квадрология / Terminator: Quadrilogy (1984-2009) HDRip | КПК от R.G. Mobile-Men | D, P
  • Терминатор: Квадрология / The Terminator: Quadrilogy (1984-2009) HDRip-AVC от WazZzup


    • Комментарии (0):

      Информация

      Информация

        Посетители, находящиеся в группе Гости, не могут оставлять комментарии в данной новости.

        ↓ Меню



        ↓ Опрос

        А Вы добавили сайт в закладки?
        Да
        Не


        Top 10 за месяц (Фильмы)