.
Авторизация | Регистрация
Хочешь лучшие торренты? Добавь свой email!
Добавить
» » Провал во времени / Retroactive (1997) HDTVRip от New-Team | P скачать через торрент бесплатно




    Провал во времени / Retroactive (1997) HDTVRip от New-Team | P скачать через торрент бесплатно

    Опубликовал: Админ | Дата: 27-02-2015, 11:10 | Просмотров: 240


    Снималось в: США
    Создали в: Cohiba Pictures
    Категория жанра: фантастика, триллер, криминал, приключения
    Создали в: 1997
    Время просмотра: 01:31:11

    Перевод текста: Профессиональный (многоголосый, закадровый) СТС
    Оригинальная аудиодорожка: нет
    Субтитры подготовлены: нет

    Главный режиссер: Луи Морно / Louis Morneau

    Актеры:
    Джеймс Белуши, Робби Тибо-младший, Джесси Боррего, Фрэнк Уэйли, Шэннон Уирри, Кайли Трэвис, Шерман Ховард, Гай Бойд...

    Сюжет:
    Под ярким солнцем Великой Американской равнины, на одинокой, продуваемой всеми ветрами автозаправочной станции происходит жестокое преступление. Эти, леденящие душу события происходят на глазах Карен, попутчицы человека, оказавшегося беспощадным убийцей. Спасаясь от его преследования, Карен вновь и вновь возвращается в прошлое, но всего лишь на 20 минут назад для того, чтобы предотвратить уже совершенное убийство. Один убийца! Один свидетель! Один шанс спастись!…




    Исходник: HDTV 1080i
    Тип релиза: HDTVRip
    Контейнер: AVI

    Информация о видео: 720x304 (2,35:1), 23,976 fps, XviD ~ 1010 kbps avg, 0.193 bit/pixel
    Информация о звуке: 48 kHz, MP3 2.0, 128 kbps

    Раздача от:
    MediaInfo

    Общее
    Полное имя : Proval.vo.vremeni.1997.HDTVRip-745_New-team_by_AVP_Studio.avi
    Формат : AVI
    Формат/Информация : Audio Video Interleave
    Размер файла : 745 Мбайт
    Продолжительность : 1 ч. 30 м.
    Общий поток : 1148 Кбит/сек
    Программа кодирования : VirtualDubModRus 1.5.10.2 (build 2542/release)
    Библиотека кодирования : VirtualDubMod build 2542/release

    Видео
    Идентификатор : 0
    Формат : MPEG-4 Visual
    Профиль формата : Advanced Simple@L5
    Параметр BVOP формата : 1
    Параметр QPel формата : Нет
    Параметр GMC формата : Без точки перехода
    Параметр матрицы формата : Выборочная
    Идентификатор кодека : XVID
    Идентификатор кодека/Подсказка : XviD
    Продолжительность : 1 ч. 30 м.
    Битрейт : 1010 Кбит/сек
    Ширина : 720 пикселей
    Высота : 304 пикселя
    Соотношение сторон : 2,35:1
    Частота кадров : 23,976 кадра/сек
    Цветовое пространство : YUV
    Субдискретизация насыщенности : 4:2:0
    Битовая глубина : 8 бит
    Тип развёртки : Прогрессивная
    Метод сжатия : С потерями
    Бит/(Пиксели*Кадры) : 0.193
    Размер потока : 656 Мбайт (88%)
    Библиотека кодирования : XviD 73

    Аудио
    Идентификатор : 1
    Формат : MPEG Audio
    Версия формата : Version 1
    Профиль формата : Layer 3
    Идентификатор кодека : 55
    Идентификатор кодека/Подсказка : MP3
    Продолжительность : 1 ч. 30 м.
    Вид битрейта : Постоянный
    Битрейт : 128 Кбит/сек
    Каналы : 2 канала
    Частота : 48,0 КГц
    Метод сжатия : С потерями
    Размер потока : 83,1 Мбайт (11%)
    Выравнивание : Соединение по промежуткам
    Продолжительность промежутка : 42 мс. (1,00 видеокадр)
    Время предзагрузки промежутка : 504 мс.
    Библиотека кодирования : LAME3.99r
    Залил: AVPStudio
    Размер скачиваемого торрента: 744.67 MB (780843008 Bytes)


    Провал во времени / Retroactive (1997) HDTVRip от New-Team | P скачать через торрент бесплатно
    загрузка...
    Рейтинг →
     (голосов: 1, оценка 4/5, голосовать можно 1 раз )

    Другие торренты по теме:

  • Провал во времени / Retroactive (1997) HDTVRip
  • Провал во времени / Retroactive (1997) DVDRip
  • Провал во времени / Retroactive (1997) HDTVRip-AVC от New-Team | P скачать через торрент бесплатно
  • Провал во времени / Retroactive (1997) HDTVRip от New-Team | P, A скачать через торрент бесплатно
  • Немезида 3: Провал во времени / Nemesis III: Time Lapse (1996) HDRip | Сербин
  • Немезида 3: Провал во времени / Nemesis III: Prey Harder (1996) BDRip-AVC от MediaClub скачать через торрент бесплатно
  • Немезида 3: Провал во времени / Nemesis III: Prey Harder
  • Провал во времени / Retroactive (1997) BDRip-AVC от k.e.n | P, P2, A


    • Комментарии (0):

      Информация

      Информация

        Посетители, находящиеся в группе Гости, не могут оставлять комментарии в данной новости.

        ↓ Меню



        ↓ Опрос

        А Вы добавили сайт в закладки?
        Да
        Не


        Top 10 за месяц (Фильмы)