.
Авторизация | Регистрация
Хочешь лучшие торренты? Добавь свой email!
Добавить
» » Дикари на улицах / Wild in the Streets (1968) DVDRip скачать через торрент бесплатно




    Дикари на улицах / Wild in the Streets (1968) DVDRip скачать через торрент бесплатно

    Опубликовал: Админ | Дата: 27-02-2015, 11:10 | Просмотров: 230





    Снималось в: США
    Создали в: American International Pictures (AIP)
    Категория жанра: Фантастика, драма
    Создали в: 1968

    Время просмотра: 01:36:33

    Перевод текста: Профессиональный многоголосый

    Оригинальная аудиодорожка: Английская

    Главный режиссер: Бэрри Шир

    Актеры: Кристофер Джонс, Шелли Уинтерс, Дайэн Варси, Хэл Холбрук, Милли Перкинс, Ричард Прайор, Берт Фрид, Кевин Кофлин, Лэрри Бишоп, Майкл Марготта, Эд Бегли

    Сюжет: Калифорнийский политик пытается привлечь Макса Фроста, 22-летнюю рок-звезду, к участию в скорой предвыборной кампании. Таким образом он рассчитывает завоевать голоса у молодежи. Однако вскоре выясняется, что популярность Фроста слишком велика и ему под силу победить на любых выборах. Макс становится президентом США и устанавливает в стране новый порядок...



    Исходник: DVD5 R2

    Тип релиза: DVDRip

    Контейнер: AVI

    Информация о видео: XviD, 1767 Кбит/с, 704х384
    Информация о звуке: Русский, английский (АС3, 2 ch, 192 Кбит/с)



    MediaInfo
    Общее
    Полное имя : D:залитьДикари на улицах.avi
    Формат : AVI
    Формат/Информация : Audio Video Interleave
    Размер файла : 1,46 Гбайт
    Продолжительность : 1 ч. 36 м.
    Общий поток : 2165 Кбит/сек
    Программа кодирования : VirtualDubMod 1.5.10.2 (build 2540/release)
    Библиотека кодирования : VirtualDubMod build 2540/release

    Видео
    Идентификатор : 0
    Формат : MPEG-4 Visual
    Профиль формата : Advanced Simple@L5
    Параметр BVOP формата : 2
    Параметр QPel формата : Нет
    Параметр GMC формата : Без точки перехода
    Параметр матрицы формата : Default (MPEG)
    Идентификатор кодека : XVID
    Идентификатор кодека/Подсказка : XviD
    Продолжительность : 1 ч. 36 м.
    Битрейт : 1767 Кбит/сек
    Ширина : 704 пикселя
    Высота : 384 пикселя
    Соотношение сторон : 1,85:1
    Частота кадров : 23,976 кадра/сек
    Цветовое пространство : YUV
    Субдискретизация насыщенности : 4:2:0
    Битовая глубина : 8 бит
    Тип развёртки : Прогрессивная
    Метод сжатия : С потерями
    Бит/(Пиксели*Кадры) : 0.273
    Размер потока : 1,19 Гбайт (82%)
    Библиотека кодирования : XviD 1.2.1 (UTC 2008-12-04)

    Аудио #1
    Идентификатор : 1
    Формат : AC-3
    Формат/Информация : Audio Coding 3
    Расширение режима : CM (complete main)
    Параметр Endianness формата : Big
    Идентификатор кодека : 2000
    Продолжительность : 1 ч. 36 м.
    Вид битрейта : Постоянный
    Битрейт : 192 Кбит/сек
    Каналы : 2 канала
    Расположение каналов : Front: L R
    Частота : 48,0 КГц
    Битовая глубина : 16 бит
    Метод сжатия : С потерями
    Размер потока : 133 Мбайт (9%)
    Выравнивание : Разделение по промежуткам
    Продолжительность промежутка : 42 мс. (1,00 видеокадр)
    Время предзагрузки промежутка : 500 мс.

    Аудио #2
    Идентификатор : 2
    Формат : AC-3
    Формат/Информация : Audio Coding 3
    Расширение режима : CM (complete main)
    Параметр Endianness формата : Big
    Идентификатор кодека : 2000
    Продолжительность : 1 ч. 36 м.
    Вид битрейта : Постоянный
    Битрейт : 192 Кбит/сек
    Каналы : 2 канала
    Расположение каналов : Front: L R
    Частота : 48,0 КГц
    Битовая глубина : 16 бит
    Метод сжатия : С потерями
    Размер потока : 133 Мбайт (9%)
    Выравнивание : Разделение по промежуткам
    Продолжительность промежутка : 42 мс. (1,00 видеокадр)
    Время предзагрузки промежутка : 500 мс.



    Скриншоты для ознакомления

    Автор рипа:
    Залил: YArl
    Размер скачиваемого торрента: 1.46 GB (1567819776 Bytes)

    Дикари на улицах / Wild in the Streets (1968) DVDRip скачать через торрент бесплатно
    загрузка...
    Рейтинг →
     (голосов: 1, оценка 5/5, голосовать можно 1 раз )

    Другие торренты по теме:

  • Дикари / The Savages (2007) DVDRip-AVC | P скачать через торрент бесплатно
  • Эрнест Сетон-Томпсон - Маленькие дикари (2013) MP3


    • Комментарии (0):

      Информация

      Информация

        Посетители, находящиеся в группе Гости, не могут оставлять комментарии в данной новости.

        ↓ Меню



        ↓ Опрос

        А Вы добавили сайт в закладки?
        Да
        Не


        Top 10 за месяц (Фильмы)