.
Авторизация | Регистрация
Хочешь лучшие торренты? Добавь свой email!
Добавить
» » Вторжение в Розуэлл / Сдохни! / Invasion Roswell / Exterminators / Battle: Earth (2013) BDRip 1080p | P2 скачать торрент бесплатно




    Вторжение в Розуэлл / Сдохни! / Invasion Roswell / Exterminators / Battle: Earth (2013) BDRip 1080p | P2 скачать торрент бесплатно

    Опубликовал: Админ | Дата: 27-02-2015, 11:10 | Просмотров: 297



    Вторжение в Розуэлл / Сдохни! / Invasion Roswell / Exterminators / Battle: Earth

    Снималось в: США
    Категория жанра: фантастика, боевик
    Создали в: 2013
    Время просмотра: 01:24:24
    Тип перевода: Профессиональное (двухголосое) SDI Media
    Главный режиссёр: Дэвид Флорес

    Актеры: Грег Эвиган, Дениз Кросби, Дэниэл Хью Келли, Стивен Биллингтон, Джон Х. Френсис, Кларенс Смит, Мариана Станишева, Владо Мажанаов, Илиана Лазарова, Христо Балабанов

    Сюжет фильма: Когда на Землю вторгаются пришельцы, единственная надежда землян — спецкоманда, которая вынуждена была уйти в отставку из-за возраста.



    Качество фильма: BDRip 1080p
    Тип видео: MKV
    Информация о видео: MPEG-4 AVC / 9606 kb/s / 1920x1080
    Информация о звуке #1: Russian / AC3 / 192 kb/s (2 ch) - DVO SDI Media
    Информация о звуке #2: English / DTS / 1536 kb/s (6 ch) - Original
    Информация о звуке #3: English / AC3 / 640 kb/s (6 ch) - Original
    Субтитры: нет
    Дополнительно: Сохранены оригинальные чаптеры как на Blu-Ray
    Скачать: Sample

    Скриншоты для ознакомления

    МедиаИнфо
    Общее
    Уникальный идентификатор : 240379432265685326742891509978418252854 (0xB4D7650889B69D1A9E2B9748B9EE0C36)
    Полное имя : D:Invasion Roswell (Exterminators) (Battle - Earth) 2013 HDR BDRip 1080p.mkv
    Формат : Matroska
    Версия формата : Version 4 / Version 2
    Размер файла : 7,04 Гбайт
    Продолжительность : 1 ч. 24 м.
    Общий поток : 11,9 Мбит/сек
    Название фильма : Invasion Roswell (Exterminators) (Battle: Earth) 2013 HDR BDRip 1080p
    Дата кодирования : UTC 2014-06-04 21:01:03
    Программа кодирования : mkvmerge v6.9.1 (;Blue Panther;) 64bit built on Apr 18 2014 18:23:38
    Библиотека кодирования : libebml v1.3.0 + libmatroska v1.4.1
    Attachment : Yes

    Видео
    Идентификатор : 1
    Формат : AVC
    Формат/Информация : Advanced Video Codec
    Профиль формата : High@L4.1
    Параметр CABAC формата : Да
    Параметр ReFrames формата : 4 кадра
    Идентификатор кодека : V_MPEG4/ISO/AVC
    Продолжительность : 1 ч. 24 м.
    Битрейт : 9606 Кбит/сек
    Ширина : 1920 пикселей
    Высота : 1080 пикселей
    Соотношение сторон : 16:9
    Режим частоты кадров : Постоянный
    Частота кадров : 23,976 кадра/сек
    Цветовое пространство : YUV
    Субдискретизация насыщенности : 4:2:0
    Битовая глубина : 8 бит
    Тип развёртки : Прогрессивная
    Бит/(Пиксели*Кадры) : 0.193
    Размер потока : 5,52 Гбайт (78%)
    Заголовок : Invasion Roswell (Exterminators) (Battle: Earth) 2013 HDR BDRip 1080p
    Библиотека кодирования : x264 core 140 r2377 1ca7bb9
    Настройки программы : cabac=1 / ref=4 / deblock=1:-3:-3 / analyse=0x3:0x133 / me=umh / subme=8 / psy=1 / psy_rd=1.00:0.15 / mixed_ref=1 / me_range=16 / chroma_me=1 / trellis=1 / 8x8dct=1 / cqm=0 / deadzone=21,11 / fast_pskip=0 / chroma_qp_offset=-4 / threads=18 / lookahead_threads=3 / sliced_threads=0 / nr=0 / decimate=1 / interlaced=0 / bluray_compat=0 / constrained_intra=0 / bframes=3 / b_pyramid=2 / b_adapt=2 / b_bias=0 / direct=3 / weightb=1 / open_gop=0 / weightp=2 / keyint=230 / keyint_min=22 / scenecut=40 / intra_refresh=0 / rc_lookahead=50 / rc=2pass / mbtree=1 / bitrate=9606 / ratetol=1.0 / qcomp=0.60 / qpmin=10 / qpmax=69 / qpstep=4 / cplxblur=20.0 / qblur=0.5 / ip_ratio=1.40 / aq=1:1.00
    Язык : English
    Default : Да
    Forced : Нет

    Аудио #1
    Идентификатор : 2
    Формат : AC-3
    Формат/Информация : Audio Coding 3
    Расширение режима : CM (complete main)
    Параметр Endianness формата : Big
    Идентификатор кодека : A_AC3
    Продолжительность : 1 ч. 24 м.
    Вид битрейта : Постоянный
    Битрейт : 192 Кбит/сек
    Каналы : 2 канала
    Расположение каналов : Front: L R
    Частота : 48,0 КГц
    Битовая глубина : 16 бит
    Метод сжатия : С потерями
    Размер потока : 116 Мбайт (2%)
    Заголовок : DVO SDI Media
    Язык : Russian
    Default : Да
    Forced : Нет

    Аудио #2
    Идентификатор : 3
    Формат : DTS
    Формат/Информация : Digital Theater Systems
    Режим : 16
    Параметр Endianness формата : Big
    Идентификатор кодека : A_DTS
    Продолжительность : 1 ч. 24 м.
    Вид битрейта : Постоянный
    Битрейт : 1509 Кбит/сек
    Каналы : 6 каналов
    Расположение каналов : Front: L C R, Side: L R, LFE
    Частота : 48,0 КГц
    Битовая глубина : 16 бит
    Метод сжатия : С потерями
    Размер потока : 911 Мбайт (13%)
    Заголовок : Original
    Язык : English
    Default : Нет
    Forced : Нет

    Аудио #3
    Идентификатор : 4
    Формат : AC-3
    Формат/Информация : Audio Coding 3
    Расширение режима : CM (complete main)
    Параметр Endianness формата : Big
    Идентификатор кодека : A_AC3
    Продолжительность : 1 ч. 24 м.
    Вид битрейта : Постоянный
    Битрейт : 640 Кбит/сек
    Каналы : 6 каналов
    Расположение каналов : Front: L C R, Side: L R, LFE
    Частота : 48,0 КГц
    Битовая глубина : 16 бит
    Метод сжатия : С потерями
    Размер потока : 386 Мбайт (5%)
    Заголовок : Original
    Язык : English
    Default : Нет
    Forced : Нет

    Меню
    00:00:00.000 : en:Chapter 01
    00:09:59.974 : en:Chapter 02
    00:19:59.990 : en:Chapter 03
    00:29:59.964 : en:Chapter 04
    00:39:59.980 : en:Chapter 05
    00:49:59.997 : en:Chapter 06
    00:59:59.971 : en:Chapter 07
    01:09:59.987 : en:Chapter 08
    01:19:59.961 : en:Chapter 09

    Размер скачиваемого торрента: 7.04 GB (7563187079 Bytes)

    Вторжение в Розуэлл / Сдохни! / Invasion Roswell / Exterminators / Battle: Earth (2013) BDRip 1080p | P2 торрент скачать бесплатно
    загрузка...
    Рейтинг →
     (голосов: 1, оценка 3/5, голосовать можно 1 раз )

    Другие торренты по теме:

  • Вторжение в США / Invasion U.S.A. (1985) DVDRip-AVC | P, А
  • Сдохни! / Вторжение в Росвелл / Invasion Roswell (2013) BDRip 720p | P скачать через торрент бесплатно
  • Сдохни! / Вторжение в Росвелл / Invasion Roswell (2013) HDRip | P скачать через торрент бесплатно
  • Вторжение в Лос-Анджелес / Apocalypse L.A. скачать через торрент бесплатно
  • Вторжение в Лос-Анджелес / Apocalypse L.A. (2014) DVDRip | L скачать через торрент бесплатно
  • Вторжение в Лос-Анджелес / Apocalypse L.A. (2014) HDRip от CINEMANIA | L1 скачать через торрент бесплатно
  • Вторжение в США / Invasion U.S.A. / 1985 / 2 x ПМ, АП (Живов, Гаврилов) / BDRip
  • Вторжение в США / Invasion U.S.A. (1985) BDRip-AVC от NNMClub | P, A


    • Комментарии (0):

      Информация

      Информация

        Посетители, находящиеся в группе Гости, не могут оставлять комментарии в данной новости.

        ↓ Меню



        ↓ Опрос

        А Вы добавили сайт в закладки?
        Да
        Не


        Top 10 за месяц (Фильмы)