.
Авторизация | Регистрация
Хочешь лучшие торренты? Добавь свой email!
Добавить
» » Джо / Joe (2013) HDRip от New-Team | P | лицензия скачать торрент бесплатно




    Джо / Joe (2013) HDRip от New-Team | P | лицензия скачать торрент бесплатно

    Опубликовал: Админ | Дата: 27-02-2015, 11:10 | Просмотров: 219



    Снималось в: США / Dreambridge Films, Muskat Filmed Properties LLC, Rough House (I), Worldview Entertainment

    Категория жанра: драма, криминал
    Создали в: 2013
    Время просмотра: 01:57:44

    Перевод текста: Профессиональный (многоголосый закадровый)
    Субтитры подготовлены: нет
    Оригинальная аудиодорожка: нет

    Главный режиссер: Дэвид Гордон Грин / David Gordon Green

    Актеры: Николас Кейдж, Тай Шеридан, Гари Поултер, Ронни Джин Блевинс, Адриэн Мишлер, Брайан Мейс, Адж Уилсон МакФол, Сью Рок, Хезер Кафка, Бренда Исаак Бут...

    Сюжет: В сонном городке на Миссисипи встретились два одиноких человека. Юный Гари поставил крест на своем будущем, не зная, как отвязаться от отца-алкоголика; бывший бандит Джо не желает вспоминать о прошлом. Неожиданно для самих себя они становятся друзьями.



    Качество фильма: HDRip / snow-joe.2013.limited.720p.bluray.x264 + DVD9 R5 от Премиум Фильм
    Тип видео: AVI

    Информация о видео: 720x304 (2.35:1), XViD 1314 Кбит/сек / 23.976 fps / Бит/(Пиксели*Кадры) : 0.250
    Информация о звуке: Dolby Digital Audio Russian 448 kbps 5.1 / 48 kHz / 448 kbps

    Раздача от:
    MediaInfo

    Общее
    Полное имя : Djo.2013.P.HDRip.1.46GB.New-Team.avi
    Формат : AVI
    Формат/Информация : Audio Video Interleave
    Размер файла : 1,46 Гбайт
    Продолжительность : 1 ч. 57 м.
    Общий поток : 1771 Кбит/сек
    Программа кодирования : VirtualDubMod 1.5.10.3 | www.virtualdub-fr.org || (build 2550/release)
    Библиотека кодирования : VirtualDubMod build 2550/release

    Видео
    Идентификатор : 0
    Формат : MPEG-4 Visual
    Профиль формата : Advanced Simple@L5
    Параметр BVOP формата : 2
    Параметр QPel формата : Нет
    Параметр GMC формата : Без точки перехода
    Параметр матрицы формата : Выборочная
    Идентификатор кодека : XVID
    Идентификатор кодека/Подсказка : XviD
    Продолжительность : 1 ч. 57 м.
    Битрейт : 1314 Кбит/сек
    Ширина : 720 пикселей
    Высота : 304 пикселя
    Соотношение сторон : 2,35:1
    Частота кадров : 23,976 кадра/сек
    Цветовое пространство : YUV
    Субдискретизация насыщенности : 4:2:0
    Битовая глубина : 8 бит
    Тип развёртки : Прогрессивная
    Метод сжатия : С потерями
    Бит/(Пиксели*Кадры) : 0.250
    Размер потока : 1,08 Гбайт (74%)
    Библиотека кодирования : XviD 1.2.1 (UTC 2008-12-04)

    Аудио
    Идентификатор : 1
    Формат : AC-3
    Формат/Информация : Audio Coding 3
    Расширение режима : CM (complete main)
    Параметр Endianness формата : Big
    Идентификатор кодека : 2000
    Продолжительность : 1 ч. 57 м.
    Вид битрейта : Постоянный
    Битрейт : 448 Кбит/сек
    Каналы : 6 каналов
    Расположение каналов : Front: L C R, Side: L R, LFE
    Частота : 48,0 КГц
    Битовая глубина : 16 бит
    Метод сжатия : С потерями
    Размер потока : 377 Мбайт (25%)
    Выравнивание : Разделение по промежуткам
    Продолжительность промежутка : 42 мс. (1,00 видеокадр)
    Время предзагрузки промежутка : 500 мс.

    Скриншоты для ознакомления:



    Залил: avproh
    Размер скачиваемого торрента: 1.46 GB (1564094464 Bytes)

    Джо / Joe (2013) HDRip от New-Team | P | лицензия торрент скачать бесплатно
    загрузка...
    Рейтинг →
     (голосов: 1, оценка 4/5, голосовать можно 1 раз )

    Другие торренты по теме:

  • Киллер Джо / Killer Joe (2011) BDRip-AVC | iPad
  • Могучий Джо Янг / Mighty Joe Young (1998) DVDRip
  • Лимонадный Джо / Limondov Joe aneb Konsk opera (1964) BDRip 720p
  • Лимонадный Джо - Стой, кто идёт (1990) FLAC
  • Знакомьтесь, Джо Блэк / Meet Joe BlackMeet Joe Black (1998) BDRip 720p
  • Джо Витале - Пробуждение сознания. 4 шага к жизни, о которой вы мечтаете (2011) PDF
  • Красавчик Джо / Beautiful Joe (2000) DVDRip от 0ptimus | P2, A
  • Джо Кидд / Joe Kidd (1972) DVDRip | Р


    • Комментарии (0):

      Информация

      Информация

        Посетители, находящиеся в группе Гости, не могут оставлять комментарии в данной новости.

        ↓ Меню



        ↓ Опрос

        А Вы добавили сайт в закладки?
        Да
        Не


        Top 10 за месяц (Фильмы)