.
Авторизация | Регистрация
Хочешь лучшие торренты? Добавь свой email!
Добавить
» » Городская полиция / Metro (1997) HDTVRip от New-Team | D скачать через торрент бесплатно




    Городская полиция / Metro (1997) HDTVRip от New-Team | D скачать через торрент бесплатно

    Опубликовал: Админ | Дата: 27-02-2015, 11:10 | Просмотров: 299


    Снималось в: США
    Создали в: Caravan Pictures, Roger Birnbaum Productions, Touchstone Pictures
    Категория жанра: боевик, триллер, драма, комедия, криминал
    Создали в: 1997
    Время просмотра: 01:52:44

    Перевод текста: Профессиональный (полное дублирование)
    Оригинальная аудиодорожка: нет
    Субтитры подготовлены: нет

    Главный режиссер: Томас Картер / Thomas Carter

    Актеры:
    Эдди Мёрфи / Eddie Murphy, Ким Мийори / Kim Miyori, Арт Эванс / Art Evans, Джеймс Карпентер / James Carpenter, Майкл Рапапорт / Michael Rapaport, Донал Лог / Donal Logue, Джени Чуа / Jeni Chua, Майкл Уинкотт / Michael Wincott, Кармен Эджого / Carmen Ejogo...

    Роли дублировали:
    Вадим Гущин, Анатолий Петров, Олег Куликович, Мария Мушкатина, Валерий Никитенко...

    Сюжет:
    Эдди Мэрфи играет роль полицейского, остроумного, крутого. Его зовут Скотт Роупер, и он лучший специалист по переговорам с преступниками, захватывающими заложников. Сюжет строится на его противостоянии с похитителем драгоценностей Майклом Корда, убившим его партнера и лучшего друга. Роупер сумел поймать его, но Корда бежит из тюрьмы, берет в заложницы любимую девушку Скотта по имени Ронни. После этого рассвирепевший Роупер и отданный ему в ученики спецназовец и великолепный снайпер Кевин МакКолл вдвоем выручают девушку из рук умного психопата…




    Исходник: HDTV 1080i
    Тип релиза: HDTVRip
    Контейнер: AVI

    Информация о видео: 624x352 (16:9), 25,000 fps, XviD ~ 786 kbps avg, 0.143 bit/pixel
    Информация о звуке: 48 kHz, MP3 2.0, 128 kbps

    Раздача от:
    MediaInfo

    Общее
    Полное имя : Gorodskaya.policiya.1997.HDTVRip-745_New-team_by_AVP_Studio.avi
    Формат : AVI
    Формат/Информация : Audio Video Interleave
    Размер файла : 745 Мбайт
    Продолжительность : 1 ч. 52 м.
    Общий поток : 924 Кбит/сек
    Программа кодирования : VirtualDubModRus 1.5.10.2 (build 2542/release)
    Библиотека кодирования : VirtualDubMod build 2542/release

    Видео
    Идентификатор : 0
    Формат : MPEG-4 Visual
    Профиль формата : Advanced Simple@L5
    Параметр BVOP формата : 1
    Параметр QPel формата : Нет
    Параметр GMC формата : Без точки перехода
    Параметр матрицы формата : Выборочная
    Идентификатор кодека : XVID
    Идентификатор кодека/Подсказка : XviD
    Продолжительность : 1 ч. 52 м.
    Битрейт : 786 Кбит/сек
    Ширина : 624 пикселя
    Высота : 352 пикселя
    Соотношение сторон : 16:9
    Частота кадров : 25,000 кадров/сек
    Цветовое пространство : YUV
    Субдискретизация насыщенности : 4:2:0
    Битовая глубина : 8 бит
    Тип развёртки : Прогрессивная
    Метод сжатия : С потерями
    Бит/(Пиксели*Кадры) : 0.143
    Размер потока : 634 Мбайт (85%)
    Библиотека кодирования : XviD 73

    Аудио
    Идентификатор : 1
    Формат : MPEG Audio
    Версия формата : Version 1
    Профиль формата : Layer 3
    Идентификатор кодека : 55
    Идентификатор кодека/Подсказка : MP3
    Продолжительность : 1 ч. 52 м.
    Вид битрейта : Постоянный
    Битрейт : 128 Кбит/сек
    Каналы : 2 канала
    Частота : 48,0 КГц
    Метод сжатия : С потерями
    Размер потока : 103 Мбайт (14%)
    Выравнивание : Соединение по промежуткам
    Продолжительность промежутка : 40 мс. (1,00 видеокадр)
    Время предзагрузки промежутка : 504 мс.
    Библиотека кодирования : LAME3.99r
    Залил: AVPStudio
    Размер скачиваемого торрента: 744.71 MB (780888064 Bytes)


    Городская полиция / Metro (1997) HDTVRip от New-Team | D скачать через торрент бесплатно
    загрузка...
    Рейтинг →
     (голосов: 1, оценка 3/5, голосовать можно 1 раз )

    Другие торренты по теме:

  • Городская полиция / Metro (1997) HDTVRip от New-Team | D скачать через торрент бесплатно
  • Городская полиция / Metro (1997) HDTVRip-AVC от New-Team | D скачать через торрент бесплатно


    • Комментарии (0):

      Информация

      Информация

        Посетители, находящиеся в группе Гости, не могут оставлять комментарии в данной новости.

        ↓ Меню



        ↓ Опрос

        А Вы добавили сайт в закладки?
        Да
        Не


        Top 10 за месяц (Фильмы)