.
Авторизация | Регистрация
Хочешь лучшие торренты? Добавь свой email!
Добавить
» » Турбулентность / Turbulence (1997) HDTVRip от New-Team | P скачать торрент бесплатно




    Турбулентность / Turbulence (1997) HDTVRip от New-Team | P скачать торрент бесплатно

    Опубликовал: Админ | Дата: 27-02-2015, 11:10 | Просмотров: 189


    Снималось в: США
    Создали в: Metro-Goldwyn-Mayer (MGM), Rysher Entertainment
    Категория жанра: боевик, триллер
    Создали в: 1997
    Время просмотра: 01:40:56

    Перевод текста: Профессиональный (многоголосый закадровый)
    Оригинальная аудиодорожка: английский
    Субтитры подготовлены: русский, английский

    Главный режиссер: Роберт Батлер / Robert Butler

    Актеры:
    Рэй Лиотта, Лорен Холли, Брендан Глисон, Гектор Элизондо, Рейчел Тикотин, Джеффри ДеМунн, Джон Финн, Бен Кросс, Кэтрин Хикс, Хайди Клинг...

    Сюжет:
    Насильник и убийца Райан Уивер попадает в руки полиции. Его вместе с другим бандитом по имени Стаббс решают переправить в лос-анджелесскую тюрьму. Неожиданно во время полета Стаббс делает попытку захватить самолет. Почувствовав свой шанс, Райан перехватывает инициативу. Ситуация выходит из-под контроля. Дальнейшее развитие событий на борту вынуждает наземные службы поставить вопрос об уничтожении самолета…




    Исходник: HDTV 1080i
    Тип релиза: HDTVRip
    Контейнер: AVI

    Информация о видео: 720x304 (2.35:1), 25 fps, XviD ~ 1481 kbps avg, 0.282 bit/pixel
    Информация о звуке: 48 kHz, Dolby Digital AC3 2.0, 192 kbps MVO
    Информация о звуке: 48 kHz, Dolby Digital AC3 5.1, 384 kbps Английский
    Субтитры: SoftSub (srt)

    Раздача от:
    MediaInfo

    Общее
    Полное имя : Turbulence.1997.HDTVRip_New-team_by_AVP_Studio.avi
    Формат : AVI
    Формат/Информация : Audio Video Interleave
    Размер файла : 1,46 Гбайт
    Продолжительность : 1 ч. 40 м.
    Общий поток : 2071 Кбит/сек
    Программа кодирования : VirtualDubModRus 1.5.10.2 (build 2542/release)
    Библиотека кодирования : VirtualDubMod build 2542/release

    Видео
    Идентификатор : 0
    Формат : MPEG-4 Visual
    Профиль формата : Advanced Simple@L5
    Параметр BVOP формата : 1
    Параметр QPel формата : Нет
    Параметр GMC формата : Без точки перехода
    Параметр матрицы формата : Выборочная
    Идентификатор кодека : XVID
    Идентификатор кодека/Подсказка : XviD
    Продолжительность : 1 ч. 40 м.
    Битрейт : 1481 Кбит/сек
    Ширина : 720 пикселей
    Высота : 304 пикселя
    Соотношение сторон : 2,35:1
    Частота кадров : 23,976 кадра/сек
    Цветовое пространство : YUV
    Субдискретизация насыщенности : 4:2:0
    Битовая глубина : 8 бит
    Тип развёртки : Прогрессивная
    Метод сжатия : С потерями
    Бит/(Пиксели*Кадры) : 0.282
    Размер потока : 1,04 Гбайт (72%)
    Библиотека кодирования : XviD 73

    Аудио #1
    Идентификатор : 1
    Формат : AC-3
    Формат/Информация : Audio Coding 3
    Расширение режима : CM (complete main)
    Параметр Endianness формата : Big
    Идентификатор кодека : 2000
    Продолжительность : 1 ч. 40 м.
    Вид битрейта : Постоянный
    Битрейт : 192 Кбит/сек
    Каналы : 2 канала
    Расположение каналов : Front: L R
    Частота : 48,0 КГц
    Битовая глубина : 16 бит
    Метод сжатия : С потерями
    Размер потока : 139 Мбайт (9%)
    Выравнивание : Разделение по промежуткам
    Продолжительность промежутка : 42 мс. (1,00 видеокадр)
    Время предзагрузки промежутка : 500 мс.

    Аудио #2
    Идентификатор : 2
    Формат : AC-3
    Формат/Информация : Audio Coding 3
    Расширение режима : CM (complete main)
    Параметр Endianness формата : Big
    Идентификатор кодека : 2000
    Продолжительность : 1 ч. 40 м.
    Вид битрейта : Постоянный
    Битрейт : 384 Кбит/сек
    Каналы : 6 каналов
    Расположение каналов : Front: L C R, Side: L R, LFE
    Частота : 48,0 КГц
    Битовая глубина : 16 бит
    Метод сжатия : С потерями
    Размер потока : 277 Мбайт (19%)
    Выравнивание : Разделение по промежуткам
    Продолжительность промежутка : 42 мс. (1,00 видеокадр)
    Время предзагрузки промежутка : 500 мс

    Скриншоты для ознакомления



    Залил: AVPStudio
    Размер скачиваемого торрента: 1.46 GB (1567897769 Bytes)

    Турбулентность / Turbulence (1997) HDTVRip от New-Team | P торрент скачать бесплатно
    загрузка...
    Рейтинг →
     (голосов: 1, оценка 4/5, голосовать можно 1 раз )

    Другие торренты по теме:

  • Турбулентность / Turbulence (1997) HDTVRip-AVC от New-Team | P
  • Турбулентность / Turbulence (1997) HDTVRip от New-Team | P
  • Турбулентность 2: Страх полетов / Turbulence 2: Fear of Flying (1999) DVDRip-AVC от New-Team | P скачать через торрент бесплатно
  • Турбулентность / Turbulence (1997) WEB-DLRip-AVC от k.e.n | P, A
  • Турбулентность / Turbulence (1997) WEB-DL 720p от Переулка Переводмана | P, A


    • Комментарии (0):

      Информация

      Информация

        Посетители, находящиеся в группе Гости, не могут оставлять комментарии в данной новости.

        ↓ Меню



        ↓ Опрос

        А Вы добавили сайт в закладки?
        Да
        Не


        Top 10 за месяц (Фильмы)