.
Авторизация | Регистрация
Хочешь лучшие торренты? Добавь свой email!
Добавить
» » Турбулентность / Turbulence (1997) HDTVRip от New-Team | P скачать торрент бесплатно




    Турбулентность / Turbulence (1997) HDTVRip от New-Team | P скачать торрент бесплатно

    Опубликовал: Админ | Дата: 27-02-2015, 11:10 | Просмотров: 202


    Снималось в: США
    Создали в: Metro-Goldwyn-Mayer (MGM), Rysher Entertainment
    Категория жанра: боевик, триллер
    Создали в: 1997
    Время просмотра: 01:40:56

    Перевод текста: Профессиональный (многоголосый закадровый)
    Оригинальная аудиодорожка: нет
    Субтитры подготовлены: нет

    Главный режиссер: Роберт Батлер / Robert Butler

    Актеры:
    Рэй Лиотта, Лорен Холли, Брендан Глисон, Гектор Элизондо, Рейчел Тикотин, Джеффри ДеМунн, Джон Финн, Бен Кросс, Кэтрин Хикс, Хайди Клинг...

    Сюжет:
    Насильник и убийца Райан Уивер попадает в руки полиции. Его вместе с другим бандитом по имени Стаббс решают переправить в лос-анджелесскую тюрьму. Неожиданно во время полета Стаббс делает попытку захватить самолет. Почувствовав свой шанс, Райан перехватывает инициативу. Ситуация выходит из-под контроля. Дальнейшее развитие событий на борту вынуждает наземные службы поставить вопрос об уничтожении самолета…




    Исходник: HDTV 1080i
    Тип релиза: HDTVRip
    Контейнер: AVI

    Информация о видео: 720x400 (16:9), 25 fps, XviD ~ 895 kbps avg, 0.170 bit/pixel
    Информация о звуке: 48 kHz, MP3 2.0, 128 kbps

    Раздача от:
    MediaInfo

    Общее
    Полное имя : Turbulence.1997.HDTVRip-745_New-team_by_AVP_Studio.avi
    Формат : AVI
    Формат/Информация : Audio Video Interleave
    Размер файла : 745 Мбайт
    Продолжительность : 1 ч. 40 м.
    Общий поток : 1032 Кбит/сек
    Программа кодирования : VirtualDubModRus 1.5.10.2 (build 2542/release)
    Библиотека кодирования : VirtualDubMod build 2542/release

    Видео
    Идентификатор : 0
    Формат : MPEG-4 Visual
    Профиль формата : Advanced Simple@L5
    Параметр BVOP формата : 1
    Параметр QPel формата : Нет
    Параметр GMC формата : Без точки перехода
    Параметр матрицы формата : Выборочная
    Идентификатор кодека : XVID
    Идентификатор кодека/Подсказка : XviD
    Продолжительность : 1 ч. 40 м.
    Битрейт : 895 Кбит/сек
    Ширина : 720 пикселей
    Высота : 304 пикселя
    Соотношение сторон : 2,35:1
    Частота кадров : 23,976 кадра/сек
    Цветовое пространство : YUV
    Субдискретизация насыщенности : 4:2:0
    Битовая глубина : 8 бит
    Тип развёртки : Прогрессивная
    Метод сжатия : С потерями
    Бит/(Пиксели*Кадры) : 0.170
    Размер потока : 646 Мбайт (87%)
    Библиотека кодирования : XviD 73

    Аудио
    Идентификатор : 1
    Формат : MPEG Audio
    Версия формата : Version 1
    Профиль формата : Layer 3
    Идентификатор кодека : 55
    Идентификатор кодека/Подсказка : MP3
    Продолжительность : 1 ч. 40 м.
    Вид битрейта : Постоянный
    Битрейт : 128 Кбит/сек
    Каналы : 2 канала
    Частота : 48,0 КГц
    Метод сжатия : С потерями
    Размер потока : 92,4 Мбайт (12%)
    Выравнивание : Соединение по промежуткам
    Продолжительность промежутка : 42 мс. (1,00 видеокадр)
    Время предзагрузки промежутка : 504 мс.
    Библиотека кодирования : LAME3.99r
    Залил: AVPStudio
    Размер скачиваемого торрента: 745.09 MB (781285376 Bytes)


    Турбулентность / Turbulence (1997) HDTVRip от New-Team | P торрент скачать бесплатно
    загрузка...
    Рейтинг →
     (голосов: 1, оценка 3/5, голосовать можно 1 раз )

    Другие торренты по теме:

  • Турбулентность / Turbulence (1997) HDTVRip-AVC от New-Team | P
  • Турбулентность / Turbulence (1997) HDTVRip от New-Team | P
  • Турбулентность 2: Страх полетов / Turbulence 2: Fear of Flying (1999) DVDRip-AVC от New-Team | P скачать через торрент бесплатно
  • Турбулентность / Turbulence (1997) WEB-DLRip-AVC от k.e.n | P, A
  • Турбулентность / Turbulence (1997) WEB-DL 720p от Переулка Переводмана | P, A


    • Комментарии (0):

      Информация

      Информация

        Посетители, находящиеся в группе Гости, не могут оставлять комментарии в данной новости.

        ↓ Меню



        ↓ Опрос

        А Вы добавили сайт в закладки?
        Да
        Не


        Top 10 за месяц (Фильмы)