.
Авторизация | Регистрация
Хочешь лучшие торренты? Добавь свой email!
Добавить
» » Колония / Double Team (1997) HDTVRip от New-Team | P скачать торрент бесплатно




    Колония / Double Team (1997) HDTVRip от New-Team | P скачать торрент бесплатно

    Опубликовал: Админ | Дата: 27-02-2015, 11:10 | Просмотров: 161


    Снималось в: США
    Создали в: Columbia Pictures, Film Workshop Ltd., Mandalay Entertainment, One Story Pictures
    Категория жанра: боевик, триллер, комедия
    Создали в: 1997
    Время просмотра: 01:33:00

    Перевод текста: Профессиональный (полное дублирование), Профессиональный (многоголосый закадровый)
    Оригинальная аудиодорожка: английский
    Субтитры подготовлены: русский

    Главный режиссер: Цуй Харк / Tsui Hark

    Актеры:
    Жан-Клод Ван Дамм (Jack Quinn), Дэннис Родман (Yaz,), Микки Рурк (Stavros), Пол Фримен (Goldsmythe), Наташа Линдинжер (Kathryn Quinn), Валерия Кавалли (Dr. Maria Trifioli), Джей Бенедикт (Brandon), Джоэлль Дэво-Вуллион (Stavros; Girlfriend), Бруно Билотта (Kofi), Марио Опинато (James), Грант Расселл (Carney), Уильям Данн (Roger)

    Роли дублировали:
    Владимир Герасимов (Jack Quinn), Олег Куценко (Yaz), Рудольф Панков (Stavros), Виктор Петров (Goldsmythe), Ольга Плетнева (Kathryn Quinn), Марина Тарасова (Dr. Maria Trifioli), Александр Рахленко, Дмитрий Филимонов, Андрей Казанцев, Ольга Кузнецова...

    Сюжет:
    Жан-Клод в роли секретного суперагента Джека Куинна. Ему поручают убрать опасного международного террориста Ставроса, но в самый ответственный момент, когда нужно было нажимать на спусковой курок, Ставрос обнимал жену и ребенка. Рука Джека дрогнула, и он упустил врага, хотя жена и сын его погибли. Теперь у Ставроса были и веские личные счеты с теми, кто заказал его убийство. Итак, Джек совершил ошибку, а такое не прощается, и он был помещен в Колонию, став мертвецом для всего остального мира, включая собственную семью. Здесь обитали мертвые лучшие шпионы и агенты со всей планеты. Они были слишком опасны, чтобы жить, и слишком дорого стоили, чтобы быть убитыми. Их использовали для анализа и отработки экстремальных ситуаций. Однако Куинн не смирился и совершил невероятный побег, чтобы довести задание до конца. Он находит себе партнера, эксцентричного торговца оружием, чернокожего лихого парня с единственной страстью — разрушать. У них разный стиль, но одна задача…




    Исходник: HDTV 1080i
    Тип релиза: HDTVRip
    Контейнер: AVI

    Информация о видео: 720x304 (2.35:1), 23,976 fps, XviD ~ 1082 kbps avg, 0.206 bit/pixel
    Информация о звуке: 48 kHz, Dolby Digital AC3 5.1, 384 kbps DUB
    Информация о звуке: 48 kHz, Dolby Digital AC3 5.1, 384 kbps MVO
    Информация о звуке: 48 kHz, Dolby Digital AC3 5.1, 384 kbps Английский
    Субтитры: SoftSub (srt)

    Раздача от:
    MediaInfo

    Общее
    Полное имя : Koloniya.1997.BDRip_New-team_by_AVP_Studio.avi
    Формат : AVI
    Формат/Информация : Audio Video Interleave
    Размер файла : 1,46 Гбайт
    Продолжительность : 1 ч. 33 м.
    Общий поток : 2252 Кбит/сек
    Программа кодирования : VirtualDubModRus 1.5.10.2 (build 2542/release)
    Библиотека кодирования : VirtualDubMod build 2542/release

    Видео
    Идентификатор : 0
    Формат : MPEG-4 Visual
    Профиль формата : Advanced Simple@L5
    Параметр BVOP формата : 1
    Параметр QPel формата : Нет
    Параметр GMC формата : Без точки перехода
    Параметр матрицы формата : Выборочная
    Идентификатор кодека : XVID
    Идентификатор кодека/Подсказка : XviD
    Продолжительность : 1 ч. 33 м.
    Битрейт : 1082 Кбит/сек
    Ширина : 720 пикселей
    Высота : 304 пикселя
    Соотношение сторон : 2,35:1
    Частота кадров : 23,976 кадра/сек
    Цветовое пространство : YUV
    Субдискретизация насыщенности : 4:2:0
    Битовая глубина : 8 бит
    Тип развёртки : Прогрессивная
    Метод сжатия : С потерями
    Бит/(Пиксели*Кадры) : 0.206
    Размер потока : 720 Мбайт (48%)
    Библиотека кодирования : XviD 73

    Аудио #1
    Идентификатор : 1
    Формат : AC-3
    Формат/Информация : Audio Coding 3
    Расширение режима : CM (complete main)
    Параметр Endianness формата : Big
    Идентификатор кодека : 2000
    Продолжительность : 1 ч. 33 м.
    Вид битрейта : Постоянный
    Битрейт : 384 Кбит/сек
    Каналы : 6 каналов
    Расположение каналов : Front: L C R, Side: L R, LFE
    Частота : 48,0 КГц
    Битовая глубина : 16 бит
    Метод сжатия : С потерями
    Размер потока : 255 Мбайт (17%)
    Выравнивание : Разделение по промежуткам
    Продолжительность промежутка : 42 мс. (1,00 видеокадр)
    Время предзагрузки промежутка : 500 мс.

    Аудио #2
    Идентификатор : 2
    Формат : AC-3
    Формат/Информация : Audio Coding 3
    Расширение режима : CM (complete main)
    Параметр Endianness формата : Big
    Идентификатор кодека : 2000
    Продолжительность : 1 ч. 33 м.
    Вид битрейта : Постоянный
    Битрейт : 384 Кбит/сек
    Каналы : 6 каналов
    Расположение каналов : Front: L C R, Side: L R, LFE
    Частота : 48,0 КГц
    Битовая глубина : 16 бит
    Метод сжатия : С потерями
    Размер потока : 255 Мбайт (17%)
    Выравнивание : Разделение по промежуткам
    Продолжительность промежутка : 42 мс. (1,00 видеокадр)
    Время предзагрузки промежутка : 500 мс.

    Аудио #3
    Идентификатор : 3
    Формат : AC-3
    Формат/Информация : Audio Coding 3
    Расширение режима : CM (complete main)
    Параметр Endianness формата : Big
    Идентификатор кодека : 2000
    Продолжительность : 1 ч. 33 м.
    Вид битрейта : Постоянный
    Битрейт : 384 Кбит/сек
    Каналы : 6 каналов
    Расположение каналов : Front: L C R, Side: L R, LFE
    Частота : 48,0 КГц
    Битовая глубина : 16 бит
    Метод сжатия : С потерями
    Размер потока : 255 Мбайт (17%)
    Выравнивание : Разделение по промежуткам
    Продолжительность промежутка : 42 мс. (1,00 видеокадр)
    Время предзагрузки промежутка : 500 мс

    Скриншоты для ознакомления



    Залил: AVPStudio
    Размер скачиваемого торрента: 1.46 GB (1571147123 Bytes)

    Колония / Double Team (1997) HDTVRip от New-Team | P торрент скачать бесплатно
    загрузка...
    Рейтинг →
     (голосов: 1, оценка 3/5, голосовать можно 1 раз )

    Другие торренты по теме:

  • Колония / Double Team (1997) HDTVRip
  • Колония / The Colony (2013) DVDRip | L2
  • Колония / The Colony (2013) WEB-DL 720p | L2
  • Колония / The Colony (2013) WEB-DLRip-AVC | L2
  • Колония / The Colony (2013) WEB-DL 1080p | L2
  • Колония / The Colony (2013) WEB-DLRip-AVC от ExKinoRay | L2
  • Колония / The Colony (2013) WEB-DLRip от BitTracker | L2
  • Колония / The Colony (2013) WEB-DLRip-AVC от FireBit-Films NoLimits-Team | L2


    • Комментарии (0):

      Информация

      Информация

        Посетители, находящиеся в группе Гости, не могут оставлять комментарии в данной новости.

        ↓ Меню



        ↓ Опрос

        А Вы добавили сайт в закладки?
        Да
        Не


        Top 10 за месяц (Фильмы)