.
Авторизация | Регистрация
Хочешь лучшие торренты? Добавь свой email!
Добавить
» » Поединок в Диггстауне / Diggstown (1992) HDTVRip от Leon-masl | P2, A скачать торрент бесплатно




    Поединок в Диггстауне / Diggstown (1992) HDTVRip от Leon-masl | P2, A скачать торрент бесплатно

    Опубликовал: Админ | Дата: 27-02-2015, 11:10 | Просмотров: 202



    Детально о кино
    Русское название: Поединок в Диггстауне
    Русское название в мировом прокате: Diggstown
    Создали в: 1992
    Категория жанра: драма, спорт, криминал
    Главный режиссер: Майкл Ритчи / Michael Ritchie
    Актеры: Джеймс Вудс, Луи Госсетт-мл., Брюс Дерн, Оливер Платт, Хизер Грэм, Рэндал Кобб, Томас Уилсон Браун, Дуан Дэвис, Дейв Фреско, Уилли Грин и др.

    Сюжет фильма:
    Даже попав в тюремные застенки, отпетый мошенник не теряет времени даром, зарабатывая капитал на организации побегов. Оказавшись на свободе, он вместе со своим напарником организует тотализатор на боксерских поединках




    Снималось в: США
    Время просмотра: 01:33:37
    Перевод текста: Профессиональный (двухголосый закадровый) (НТВ+), Авторский (одноголосый, закадровый) В.Горчаков

    Файл
    Кодек для видео: XviD
    Качество фильма: HDTVRip с HDTV |1080i|
    Информация о видео: 704x384, 25.000 fps, 1830 kbps
    Информация о звуке 1 : AC3, 2 ch, 192 kbps............Профессиональный (двухголосый закадровый) (НТВ+)
    Информация о звуке 2 : AC3, 2 ch, 192 kbps............Авторский (одноголосый, закадровый) В.Горчаков
    MI
    Общее
    Полное имя : Diggstown.1992.HDTVRip.avi
    Формат : AVI
    Формат/Информация : Audio Video Interleave
    Размер файла : 1,46 Гбайт
    Продолжительность : 1 ч. 33 м.
    Общий поток : 2228 Кбит/сек
    Программа кодирования : VirtualDubMod 1.5.10.2 (build 2542/release)
    Библиотека кодирования : VirtualDubMod build 2542/release

    Видео
    Идентификатор : 0
    Формат : MPEG-4 Visual
    Профиль формата : Advanced Simple@L5
    Параметр BVOP формата : 1
    Параметр QPel формата : Нет
    Параметр GMC формата : Без точки перехода
    Параметр матрицы формата : Выборочная
    Идентификатор кодека : XVID
    Идентификатор кодека/Подсказка : XviD
    Продолжительность : 1 ч. 33 м.
    Битрейт : 1830 Кбит/сек
    Ширина : 704 пикс.
    Высота : 384 пикс.
    Соотношение сторон : 16:9
    Частота кадров : 25,000 кадр/сек
    Цветовое пространство : YUV
    Подвыборка цветности : 4:2:0
    Битовая глубина : 8 бит
    Тип развёртки : Прогрессивная
    Метод сжатия : С потерями
    Бит/(Пиксели*Кадры) : 0.271
    Размер потока : 1,20 Гбайт (82%)
    Библиотека кодирования : XviD 1.2.1 (UTC 2008-12-04)

    Аудио #1
    Идентификатор : 1
    Формат : AC-3
    Формат/Информация : Audio Coding 3
    Расширение режима : CM (complete main)
    Идентификатор кодека : 2000
    Продолжительность : 1 ч. 33 м.
    Вид битрейта : Постоянный
    Битрейт : 192 Кбит/сек
    Канал(ы) : 2 канала(ов)
    Расположение каналов : Front: L R
    Частота : 48,0 КГц
    Битовая глубина : 16 бит
    Метод сжатия : С потерями
    Размер потока : 129 Мбайт (9%)
    Выравнивание : Разделение по промежуткам
    Продолжительность промежутка : 40 мс. (1,00 видеокадр)
    Время предзагрузки промежутка : 500 ms

    Аудио #2
    Идентификатор : 2
    Формат : AC-3
    Формат/Информация : Audio Coding 3
    Расширение режима : CM (complete main)
    Идентификатор кодека : 2000
    Продолжительность : 1 ч. 33 м.
    Вид битрейта : Постоянный
    Битрейт : 192 Кбит/сек
    Канал(ы) : 2 канала(ов)
    Расположение каналов : Front: L R
    Частота : 48,0 КГц
    Битовая глубина : 16 бит
    Метод сжатия : С потерями
    Размер потока : 129 Мбайт (9%)
    Выравнивание : Разделение по промежуткам
    Продолжительность промежутка : 40 мс. (1,00 видеокадр)
    Время предзагрузки промежутка : 500 ms
    Скриншоты для ознакомления


    Релиз подготовил: Leon-masl
    Залил: leon-masl
    Размер скачиваемого торрента: 1.46 GB (1564788736 Bytes)

    Поединок в Диггстауне / Diggstown (1992) HDTVRip от Leon-masl | P2, A торрент скачать бесплатно
    загрузка...
    Рейтинг →
     (голосов: 1, оценка 3/5, голосовать можно 1 раз )

    Другие торренты по теме:

  • Поединок в Диггстауне / Diggstown (1992) HDTVRip 720p | P
  • Поединок в Диггстауне / Diggstown (1992) BDRip от AleksSin | P, P2, A
  • Поединок в Диггстауне / Diggstown (1992) BDRip 720p | P, P2, A


    • Комментарии (0):

      Информация

      Информация

        Посетители, находящиеся в группе Гости, не могут оставлять комментарии в данной новости.

        ↓ Меню



        ↓ Опрос

        А Вы добавили сайт в закладки?
        Да
        Не


        Top 10 за месяц (Фильмы)