.
Авторизация | Регистрация
Хочешь лучшие торренты? Добавь свой email!
Добавить
» » Убить Сталина (2013) DVDRip от NovaLan скачать через торрент бесплатно




    Убить Сталина (2013) DVDRip от NovaLan скачать через торрент бесплатно

    Опубликовал: Админ | Дата: 27-02-2015, 11:10 | Просмотров: 226





    Снималось в: Россия
    Создали в: Star Media
    Категория жанра: Военный
    Создали в: 2013

    Время просмотра: 8 х ~ 00:51:00

    Язык: Русский

    Главный режиссер: Сергей Гинзбург

    Актеры: Александр Домогаров, Михаил Пореченков, Екатерина Вилкова, Павел Трубинер, Андрей Гусев, Василий Мищенко, Игорь Хрипунов, Ярослав Жалнин, Игорь Арташонов, Владимир Юматов, Азамат Нигманов, Адам Булгучев, Дмитрий Гудочкин, Анатолий Дзиваев, Николай Шрайбер, Дмитрий Лавров (III), Алексей Огурцов, Денис Константинов, Евгений Миллер

    Сюжет: Осень 1941-го года. Немецкие полчища рвутся к Москве. Здесь их сдерживают героические усилия советских воинов и рано наступившая морозная зима. Но положение на фронте очень тяжелое, врага едва удается сдерживать. Руководство рейха решает нанести сокрушительный и коварный удар — убить Сталина. Осуществить операцию поручено специальной группе из полка Бранденбург-800.



    Исходник: DVD5 R9

    Тип релиза: DVDRip

    Контейнер: AVI

    Информация о видео: XviD, ~ 1307 Кбит/с, 720х400
    Информация о звуке: АС3, 2 ch, 192 Кбит/с

    MediaInfo
    Общее
    Полное имя : D:1АААУБИТЬ СТАЛИНА1 серия.avi
    Формат : AVI
    Формат/Информация : Audio Video Interleave
    Размер файла : 551 Мбайт
    Продолжительность : 51 м.
    Общий поток : 1508 Кбит/сек
    Программа кодирования : VirtualDubMod 1.5.10.3 | www.virtualdub-fr.org || (build 2550/release)
    Библиотека кодирования : VirtualDubMod build 2550/release

    Видео
    Идентификатор : 0
    Формат : MPEG-4 Visual
    Профиль формата : Advanced Simple@L5
    Параметр BVOP формата : 2
    Параметр QPel формата : Нет
    Параметр GMC формата : Без точки перехода
    Параметр матрицы формата : Default (MPEG)
    Идентификатор кодека : XVID
    Идентификатор кодека/Подсказка : XviD
    Продолжительность : 51 м.
    Битрейт : 1307 Кбит/сек
    Ширина : 720 пикселей
    Высота : 400 пикселей
    Соотношение сторон : 16:9
    Частота кадров : 23,976 кадра/сек
    Цветовое пространство : YUV
    Субдискретизация насыщенности : 4:2:0
    Битовая глубина : 8 бит
    Тип развёртки : Прогрессивная
    Метод сжатия : С потерями
    Бит/(Пиксели*Кадры) : 0.189
    Размер потока : 478 Мбайт (87%)
    Библиотека кодирования : XviD 1.2.1 (UTC 2008-12-04)

    Аудио
    Идентификатор : 1
    Формат : AC-3
    Формат/Информация : Audio Coding 3
    Расширение режима : CM (complete main)
    Параметр Endianness формата : Big
    Идентификатор кодека : 2000
    Продолжительность : 51 м.
    Вид битрейта : Постоянный
    Битрейт : 192 Кбит/сек
    Каналы : 2 канала
    Расположение каналов : Front: L R
    Частота : 48,0 КГц
    Битовая глубина : 16 бит
    Метод сжатия : С потерями
    Размер потока : 70,2 Мбайт (13%)
    Выравнивание : Разделение по промежуткам
    Продолжительность промежутка : 42 мс. (1,00 видеокадр)
    Время предзагрузки промежутка : 500 мс.




    Скриншоты для ознакомления




    Релиз группа:
    Автор рипа:
    Залил: YArl
    Размер скачиваемого торрента: 4.31 GB (4626573312 Bytes)

    Убить Сталина (2013) DVDRip от NovaLan скачать через торрент бесплатно
    загрузка...
    Рейтинг →
     (голосов: 1, оценка 4/5, голосовать можно 1 раз )

    Другие торренты по теме:

  • Убить Сталина (2013) SATRip от GeneralFilm
  • Убить Сталина (2013) WEB-DL (1080p) от Nikolspup
  • Убить Сталина (2013) WEB-DL (720p) от ExKinoRay
  • Убить Сталина (2013) WEB-DLRip от РиперАМ скачать через торрент бесплатно
  • Убить Сталина (2013) WEB-DLRip от Generalfilm
  • Убить Сталина (2013) WEB-DLRip от Generalfilm | КПК


    • Комментарии (0):

      Информация

      Информация

        Посетители, находящиеся в группе Гости, не могут оставлять комментарии в данной новости.

        ↓ Меню



        ↓ Опрос

        А Вы добавили сайт в закладки?
        Да
        Не


        Top 10 за месяц (Фильмы)