.
Авторизация | Регистрация
Хочешь лучшие торренты? Добавь свой email!
Добавить
» » Армагеддон / Armageddon (1998) BDRip-AVC | D скачать торрент бесплатно




    Армагеддон / Armageddon (1998) BDRip-AVC | D скачать торрент бесплатно

    Опубликовал: Админ | Дата: 27-02-2015, 11:09 | Просмотров: 386



    Армагеддон / Armageddon

    Слоган: Во имя любви. Во имя чести. Во имя человечества.

    Год выпуска: 1998 г.
    Производство: США
    Жанр: фантастика, боевик, триллер, приключения
    Продолжительность: 02:30:50

    Перевод: Профессиональный (полное дублирование)
    Оригинальный аудиопоток: английский
    Субтитры: Русские, английские

    Режиссер: Майкл Бэй / Michael Bay

    В ролях: Брюс Уиллис, Бен Аффлек, Лив Тайлер, Уилл Пэттон, Билли Боб Торнтон, Стив Бушеми, Уильям Фихтнер, Оуэн Уилсон, Майкл Кларк Дункан, Петер Стормаре

    Описание:
    Тень гигантского астероида легла на Землю. До рокового столкновения остаются считанные дни. Наступает Армагеддон, трагический финал мировой истории. Чтобы предотвратить катастрофу, необходимо чудо — или совместные усилия лучших из лучших вместе с технологической мощью всего созданного человеком. Сможет ли горстка людей противостоять вселенской стихии?..

    Качество видео: BDRip-AVC
    Формат видео: MKV
    Видео кодек: H.264
    Аудио кодек: AC3
    Видео: 1024x432, 23.976fps, 1996 Kbps, 0.188 bit/pixel
    Аудио: 48.0 KHz, 6 ch, 384 Kbps - Rus / Eng

    Релиз от:

    MediaInfo
    Format : Matroska
    Format version : Version 2
    File size : 2.91 GiB
    Duration : 2h 30mn
    Overall bit rate : 2 766 Kbps
    Movie name : Armageddon (1998) - The Jolly Roger by Pirat.Ca zyyx
    Encoded date : UTC 2012-10-29 07:42:19
    Writing application : mkvmerge v4.9.1 (;Ich will;) сборка от Aug 10 2011 09:31:20
    Writing library : libebml v1.2.1 libmatroska v1.2.0

    Video
    ID : 1
    Format : AVC
    Format/Info : Advanced Video Codec
    Format profile : High@L4.1
    Format settings, CABAC : Yes
    Format settings, ReFrames : 16 frames
    Codec ID : V_MPEG4/ISO/AVC
    Duration : 2h 30mn
    Bit rate : 1 996 Kbps
    Width : 1 024 pixels
    Height : 432 pixels
    Display aspect ratio : 2.40:1
    Frame rate : 23.976 fps
    Color space : YUV
    Chroma subsampling : 4:2:0
    Bit depth : 8 bits
    Scan type : Progressive
    Bits/(Pixel*Frame) : 0.188
    Stream size : 2.05 GiB (70%)
    Title : JRG
    Writing library : x264 core 116 r2074 2641b9e
    Encoding settings : cabac=1 / ref=16 / deblock=1:-1:-1 / analyse=0x3:0x133 / me=umh / subme=11 / psy=1 / psy_rd=1.00:0.10 / mixed_ref=1 / me_range=64 / chroma_me=1 / trellis=2 / 8x8dct=1 / cqm=0 / deadzone=21,11 / fast_pskip=0 / chroma_qp_offset=-3 / threads=16 / sliced_threads=0 / nr=0 / decimate=1 / interlaced=0 / bluray_compat=0 / constrained_intra=0 / bframes=16 / b_pyramid=2 / b_adapt=2 / b_bias=0 / direct=3 / weightb=1 / open_gop=0 / weightp=2 / keyint=250 / keyint_min=23 / scenecut=40 / intra_refresh=0 / rc_lookahead=50 / rc=2pass / mbtree=1 / bitrate=1996 / ratetol=1.0 / qcomp=0.60 / qpmin=0 / qpmax=69 / qpstep=4 / cplxblur=20.0 / qblur=0.5 / ip_ratio=1.40 / aq=1:1.00
    Language : English
    Default : Yes
    Forced : No

    Audio #1
    ID : 2
    Format : AC-3
    Format/Info : Audio Coding 3
    Mode extension : CM (complete main)
    Format settings, Endianness : Big
    Codec ID : A_AC3
    Duration : 2h 30mn
    Bit rate mode : Constant
    Bit rate : 384 Kbps
    Channel(s) : 6 channels
    Channel positions : Front: L C R, Side: L R, LFE
    Sampling rate : 48.0 KHz
    Bit depth : 16 bits
    Compression mode : Lossy
    Stream size : 414 MiB (14%)
    Language : Russian
    Default : Yes
    Forced : No

    Audio #2
    ID : 3
    Format : AC-3
    Format/Info : Audio Coding 3
    Mode extension : CM (complete main)
    Format settings, Endianness : Big
    Codec ID : A_AC3
    Duration : 2h 30mn
    Bit rate mode : Constant
    Bit rate : 384 Kbps
    Channel(s) : 6 channels
    Channel positions : Front: L C R, Side: L R, LFE
    Sampling rate : 48.0 KHz
    Bit depth : 16 bits
    Compression mode : Lossy
    Stream size : 414 MiB (14%)
    Language : English
    Default : No
    Forced : No

    Text #1
    ID : 4
    Format : UTF-8
    Codec ID : S_TEXT/UTF8
    Codec ID/Info : UTF-8 Plain Text
    Language : Russian
    Default : Yes
    Forced : No

    Text #2
    ID : 5
    Format : UTF-8
    Codec ID : S_TEXT/UTF8
    Codec ID/Info : UTF-8 Plain Text
    Language : English
    Default : No
    Forced : No


    Размер: 2.91 GB (3129363712 Bytes)
    загрузка...
    Рейтинг →
     (голосов: 1, оценка 3/5, голосовать можно 1 раз )

    Другие торренты по теме:

  • OST - Армагеддон / Armageddon Soundtrack (1998) MP3
  • Снежный армагеддон / Вызывая бурю / Snowmageddon (2011) DVD 5
  • Вызывая бурю / Снежный армагеддон / Snowmageddon (2011) HDRip | Лицензия
  • Герберт Уэллс - Армагеддон и другие рассказы (2010) MP3
  • Армагеддон / Armageddon (1998) BDRip от HELLYWOOD
  • Армагеддон / Armageddon (1998) BDRip 720p от HELLYWOOD
  • Worms: Armageddon / Worms: Армагеддон (1999) PC | RePack от Sania
  • Армагеддон / Armageddon (1998) BDRip 720p | 60 FPS


    • Комментарии (0):

      Информация

      Информация

        Посетители, находящиеся в группе Гости, не могут оставлять комментарии в данной новости.

        ↓ Меню



        ↓ Опрос

        А Вы добавили сайт в закладки?
        Да
        Не


        Top 10 за месяц (Фильмы)