.
Авторизация | Регистрация
Хочешь лучшие торренты? Добавь свой email!
Добавить
» » Друзья / Friends (2001-2002) BDRip-AVC | iPad скачать через торрент бесплатно




    Друзья / Friends (2001-2002) BDRip-AVC | iPad скачать через торрент бесплатно

    Опубликовал: Админ | Дата: 27-02-2015, 11:10 | Просмотров: 210



    Детально о кино
    Русское название: Друзья
    Русское название в мировом прокате: Friends
    Создали в: 2001-2002
    Категория жанра: Sitcom
    Главный режиссер: David Crane, Marta Kauffman
    Актеры: Jennifer Aniston, Courteney Cox Arquette, Lisa Kudrow, Matt LeBlanc, Matthew Perry, David Schwimmer

    Сюжет фильма:
    Главные герои — шестеро друзей — Рейчел, Моника, Фиби, Джоуи, Чендлер и Росс. Три девушки и три парня, которые дружат, живут по соседству, вместе убивают время и противостоят жестокой реальности, делятся своими секретами и иногда очень сильно влюбляются.
    Сериал признан одним из лучших комедийных сериалов в истории американского телевидения и стал одним из наиболее заметных проектов 1990-х годов. Сама постановка и творческая группа получили множество наград, в том числе шесть премий Эмми и премию Золотой глобус.

    Снималось в: США
    Киностудия: Канал NBC
    Время просмотра: 24 x ~22мин

    Файл
    Тип видео: m4v
    Качество фильма: BDRip-AVC
    Информация о видео: H.264, 1024x576 (16:9), ~2900kbps, 23,976fps
    Информация о звуке: AAC, 2 channels, 48.0 KHz, 160 kbps VBR
    Аудио 1: Русский - профессиональный многоголосый закадровый
    Аудио 2: Украинский - профессиональный многоголосый закадровый
    Аудио 3: Английский - оригинал
    Субтитры: русские, английские
    Метатэги: Прописаны
    Навигация по главам: есть

    Раздача будет полезна пользователям iOS и OS X платформ.
    При просмотре на Windows рекомендую пользоваться iTunes или VLC media player.

    Скриншоты для ознакомления


    MI x264 log
    6 серия

    x264 info: frame I:373 Avg QP:16.06 size: 95888 PSNR Mean Y:47.83 U:50.61 V:51.61 Avg:48.66 Global:47.92
    x264 info: frame P:6245 Avg QP:19.24 size: 34819 PSNR Mean Y:44.69 U:48.46 V:49.31 Avg:45.66 Global:45.29
    x264 info: frame B:24968 Avg QP:22.55 size: 10696 PSNR Mean Y:43.07 U:48.03 V:49.07 Avg:44.23 Global:43.67
    x264 info: consecutive B-frames: 1.7% 0.4% 2.4% 20.9% 22.6% 46.2% 4.3% 0.7% 0.3% 0.1% 0.0% 0.4%
    x264 info: mb I I16..4: 2.4% 82.5% 15.1%
    x264 info: mb P I16..4: 0.9% 11.0% 1.5% P16..4: 36.9% 29.9% 15.1% 0.0% 0.0% skip: 4.7%
    x264 info: mb B I16..4: 0.0% 0.9% 0.1% B16..8: 39.5% 11.0% 3.3% direct: 7.5% skip:37.8% L0:40.4% L1:44.2% BI:15.4%
    x264 info: 8x8 transform intra:82.9% inter:60.3%
    x264 info: coded y,uvDC,uvAC intra: 90.2% 83.0% 57.3% inter: 30.8% 18.6% 3.3%
    x264 info: i16 v,h,dc,p: 49% 12% 8% 31%
    x264 info: i8 v,h,dc,ddl,ddr,vr,hd,vl,hu: 15% 8% 7% 8% 13% 14% 11% 12% 11%
    x264 info: i4 v,h,dc,ddl,ddr,vr,hd,vl,hu: 12% 7% 4% 9% 15% 16% 13% 13% 12%
    x264 info: i8c dc,h,v,p: 39% 20% 25% 17%
    x264 info: Weighted P-Frames: Y:1.5% UV:0.9%
    x264 info: ref P L0: 43.2% 12.1% 21.7% 5.7% 6.1% 3.3% 3.9% 1.7% 2.3% 0.1% 0.0%
    x264 info: ref B L0: 79.9% 10.7% 3.8% 2.1% 1.3% 1.2% 0.6% 0.3%
    x264 info: ref B L1: 95.1% 4.9%
    x264 info: SSIM Mean Y:0.9764860 (16.287db)
    x264 info: PSNR Mean Y:43.450 U:48.147 V:49.148 Avg:44.568 Global:43.977 kb/s:3159.34

    General
    Format : MPEG-4
    Format profile : Base Media / Version 2
    Codec ID : mp42
    File size : 575 MiB
    Duration : 21mn 58s
    Overall bit rate mode : Variable
    Overall bit rate : 3 656 Kbps
    Collection : Friends
    Season : 8
    Album : Friends, Season 8
    Part : 6
    Track name : The One With the Halloween Party
    Track name/Position : 6
    Track name/Total : 24
    Performer : Friends
    Genre : Comedy
    ContentType : TV Show
    Deion : At Monica;s Halloween party, Phoebe meets the friendly fianc?, Eric, of her flighty twin, Ursula. / Friends continues at the top of its game in this eighth exceptional season that won the Emmy® Award for Outstanding Comedy Series. Moments after Monica and Chandler;s wedding reception, the news arrives of an impending birth – but it turns out to be Rachel;s! And the unknowing father is Ross. But as Rachel;s hormones kick into high gear, so does the craziness as she gets romantically mixed up with Joey. Meanwhile, Chandler;s obsessed with Monica;s forbidden closet and plenty of guest stars stop by, including Sean Penn, who joins the gang during a Halloween party. Plus, Phoebe stalks rock superstar Sting through his wife, Alec Baldwin makes an indelible impression as Mr. Positive-Man Parker and Brad Pitt guest stars as an old high school friend of Rachel’s who absolutely, positively can;t stand her. And, with Rachel;s baby joining the crib in the season finale, you won;t want to miss a single hilarious episode.
    Recorded date : 2001-11-01
    Encoded date : UTC 2014-05-27 18:31:05
    Tagged date : UTC 2014-05-29 09:03:59
    Cover : Yes
    Rating : None
    TVNetworkName : NBC
    Part_ID : 806
    LongDeion : At Monica;s Halloween party, Phoebe meets the friendly fianc?, Eric (special guest star Sean Penn - Dead Man Walking), of her flighty twin, Ursula. Phoebe becomes alarmed when she learns that her sister has misrepresented herself to the trusting guy--and Phoebe finds herself attracted to him as well. Monica comes disguised as Catwoman and wonders if she could defeat Phoebe;s Supergirl character. Chandler arrives as a pink bunny and mistakes Ross; giant Spudnik costume for something found on a sidewalk. Also, Rachel gives away all the candy and guiltily resorts to writing checks for the trick-or-treaters.
    AppleStoreCountry : United States
    AppleStoreCatalogID : 313417288
    AlbumTitleID : 166638839
    PlayListID : 311841559
    ContentRating : us-tv|TV-14|500|

    Video #1
    ID : 1
    Format : AVC
    Format/Info : Advanced Video Codec
    Format profile : High@L4.0
    Format settings, CABAC : Yes
    Format settings, ReFrames : 9 frames
    Codec ID : avc1
    Codec ID/Info : Advanced Video Coding
    Duration : 21mn 57s
    Bit rate : 3 159 Kbps
    Width : 1 024 pixels
    Height : 576 pixels
    Display aspect ratio : 16:9
    Frame rate mode : Variable
    Frame rate : 23.976 fps
    Minimum frame rate : 23.974 fps
    Maximum frame rate : 23.981 fps
    Color space : YUV
    Chroma subsampling : 4:2:0
    Bit depth : 8 bits
    Scan type : Progressive
    Bits/(Pixel*Frame) : 0.223
    Stream size : 496 MiB (86%)
    Writing library : x264 core 130 r2273 b3065e6
    Encoding settings : cabac=1 / ref=9 / deblock=1:-2:-1 / analyse=0x3:0x113 / me=umh / subme=10 / psy=1 / psy_rd=1.00:0.00 / mixed_ref=1 / me_range=32 / chroma_me=1 / trellis=2 / 8x8dct=1 / cqm=0 / deadzone=21,11 / fast_pskip=1 / chroma_qp_offset=-2 / threads=6 / lookahead_threads=1 / sliced_threads=0 / nr=0 / decimate=1 / interlaced=0 / bluray_compat=0 / constrained_intra=0 / bframes=11 / b_pyramid=2 / b_adapt=2 / b_bias=0 / direct=1 / weightb=1 / open_gop=0 / weightp=2 / keyint=240 / keyint_min=24 / scenecut=40 / intra_refresh=0 / rc_lookahead=40 / rc=crf / mbtree=1 / crf=18.0 / qcomp=0.60 / qpmin=0 / qpmax=69 / qpstep=4 / ip_ratio=1.40 / aq=1:1.00
    Language : English
    Encoded date : UTC 2014-05-27 18:31:05
    Tagged date : UTC 2014-05-27 19:44:27
    Color primaries : BT.709
    Transfer characteristics : BT.709
    Matrix coefficients : BT.709

    Video #2
    ID : 8
    Format : JPEG
    Codec ID : jpeg
    Duration : 21mn 57s
    Bit rate mode : Variable
    Bit rate : 1 159 bps
    Width : 640 pixels
    Height : 360 pixels
    Display aspect ratio : 16:9
    Frame rate mode : Variable
    Frame rate : 0.003 fps
    Minimum frame rate : 0.001 fps
    Maximum frame rate : 0.017 fps
    Color space : YUV
    Chroma subsampling : 4:2:0
    Bit depth : 8 bits
    Compression mode : Lossy
    Bits/(Pixel*Frame) : 1.677
    Stream size : 189 KiB (0%)
    Language : English
    Encoded date : UTC 2014-05-28 11:16:15
    Tagged date : UTC 2014-05-28 11:16:15

    Audio #1
    ID : 2
    Format : AAC
    Format/Info : Advanced Audio Codec
    Format profile : LC
    Codec ID : 40
    Duration : 21mn 58s
    Bit rate mode : Variable
    Bit rate : 160 Kbps
    Maximum bit rate : 274 Kbps
    Channel(s) : 2 channels
    Channel positions : Front: L R
    Sampling rate : 48.0 KHz
    Compression mode : Lossy
    Stream size : 25.1 MiB (4%)
    Language : Russian
    Encoded date : UTC 2014-05-27 18:31:05
    Tagged date : UTC 2014-05-27 19:44:26

    Audio #2
    ID : 3
    Format : AAC
    Format/Info : Advanced Audio Codec
    Format profile : LC
    Codec ID : 40
    Duration : 21mn 57s
    Bit rate mode : Variable
    Bit rate : 159 Kbps
    Maximum bit rate : 191 Kbps
    Channel(s) : 2 channels
    Channel positions : Front: L R
    Sampling rate : 48.0 KHz
    Compression mode : Lossy
    Stream size : 24.9 MiB (4%)
    Language : Ukrainian
    Encoded date : UTC 2014-05-27 18:31:05
    Tagged date : UTC 2014-05-27 19:44:26

    Audio #3
    ID : 4
    Format : AAC
    Format/Info : Advanced Audio Codec
    Format profile : LC
    Codec ID : 40
    Duration : 21mn 58s
    Bit rate mode : Variable
    Bit rate : 160 Kbps
    Maximum bit rate : 319 Kbps
    Channel(s) : 2 channels
    Channel positions : Front: L R
    Sampling rate : 48.0 KHz
    Compression mode : Lossy
    Stream size : 25.1 MiB (4%)
    Language : English
    Encoded date : UTC 2014-05-27 18:31:05
    Tagged date : UTC 2014-05-27 19:44:26

    Text #1
    ID : 6
    Format : Timed Text
    Muxing mode : sbtl
    Codec ID : tx3g
    Duration : 21mn 47s
    Bit rate mode : Variable
    Bit rate : 139 bps
    Stream size : 22.2 KiB (0%)
    Language : Russian
    Encoded date : UTC 2014-05-28 11:15:54
    Tagged date : UTC 2014-05-28 11:16:13

    Text #2
    ID : 7
    Format : Timed Text
    Muxing mode : sbtl
    Codec ID : tx3g
    Duration : 21mn 47s
    Bit rate mode : Variable
    Bit rate : 87 bps
    Stream size : 13.9 KiB (0%)
    Language : English
    Encoded date : UTC 2014-05-28 11:15:54
    Tagged date : UTC 2014-05-28 11:16:13

    Menu
    ID : 5
    Codec ID : text
    Duration : 21mn 57s
    Language : English
    Encoded date : UTC 2014-05-27 18:31:05
    Tagged date : UTC 2014-05-27 19:44:26
    Bit rate mode : CBR
    00:00:00.000 : Chapter 1
    00:01:55.532 : Chapter 2
    00:13:42.029 : Chapter 3
    00:20:58.632 : Chapter 4

    Залил: Black_Olorin
    Размер скачиваемого торрента: 12.71 GB (13643972569 Bytes)

    Друзья / Friends (2001-2002) BDRip-AVC | iPad скачать через торрент бесплатно
    загрузка...
    Рейтинг →
     (голосов: 1, оценка 5/5, голосовать можно 1 раз )

    Другие торренты по теме:

  • Настоящиe друзья / Друзья и любовники / Friends Lovers (1999) DVDRip от vittrack
  • Друзья / Friends (2000-2001) BDRip-AVC 720p | P
  • Вуди Вудпекер и друзья: Лучшее / Woody Woodpecker and His Friends (1940) DVDRip от Sheikn
  • Он, я и его друзья / You, Me and Dupree (2006) HDRip от Scarabey | D
  • Друзья навек / You-Me: Friends Until Death / Friend is Neverdie / Meung-Guu paean gun jon wan tai (2012) DVDRip
  • Винни Пух и его друзья. Маленькие приключения / Mini Adventures of Winnie The Pooh (2011) DVB
  • Друзья Питера / Peters Friends (1992) BDRip от FilmRus | P
  • Принцип Хабарова / Заклятые друзья (2012) SATRip от Files-x


    • Комментарии (0):

      Информация

      Информация

        Посетители, находящиеся в группе Гости, не могут оставлять комментарии в данной новости.

        ↓ Меню



        ↓ Опрос

        А Вы добавили сайт в закладки?
        Да
        Не


        Top 10 за месяц (Фильмы)