.
Авторизация | Регистрация
Хочешь лучшие торренты? Добавь свой email!
Добавить
» » Переводчик (2013) DVDRip от New-Team | лицензия скачать через торрент бесплатно




    Переводчик (2013) DVDRip от New-Team | лицензия скачать через торрент бесплатно

    Опубликовал: Админ | Дата: 27-02-2015, 11:10 | Просмотров: 351



    Снималось в: Россия / Марс Медиа Энтертейнмент

    Категория жанра: военный, драма
    Создали в: 2013
    Время просмотра: ~ 00:50:00 - серия

    Перевод текста: Не требуется
    Субтитры подготовлены: нет
    Оригинальная аудиодорожка: русский

    Главный режиссер: Андрей Прошкин

    Актеры: Виталий Хаев, Йоахим Пауль Ассбёк, Лариса Малеванная, Карина Андоленко, Георг Блумрайтер, Петар Зекавица, Анна Уколова, Борис Каморзин, Ольга Лапшина, Михаил Горбатов...

    Сюжет: Эта история о том, как обыкновенный негероический человек становится героем. Преподаватель химии Андрей Петрович Стариков — по прозвищу Чарли Чаплин — живет с женой и матерью в старом доме-колодце, в котором, как в ковчеге, собрался пестрый интернационал: украинцы, русские, евреи, татары и армяне. Но приход немцев резко меняет их жизнь. Чтобы спасти своих близких, Чарли вынужден служить переводчиком в фашистском штабе.



    Качество фильма: DVDRip / DVD9 R5 - лицензионный диск от Марс Медиа Энтертейнмент
    Тип видео: AVI

    Информация о видео: 720x400 (16:9), 25.000 fps, XviD ~ 1800 kbps avg, 0.250 bit/pixel
    Информация о звуке: 48 kHz, Dolby AC3, 6 ch, 448 kbps, русский

    Раздача от:

    MediaInfo

    Общее
    Полное имя : Perevodchik.2013.O.DVDRip_New-Team_by_avproh1.avi
    Формат : AVI
    Формат/Информация : Audio Video Interleave
    Размер файла : 805 Мбайт
    Продолжительность : 49 м.
    Общий поток : 2257 Кбит/сек
    Программа кодирования : VirtualDubMod 1.5.10.3 | www.virtualdub-fr.org || (build 2550/release)
    Библиотека кодирования : VirtualDubMod build 2550/release

    Видео
    Идентификатор : 0
    Формат : MPEG-4 Visual
    Профиль формата : Advanced Simple@L5
    Параметр BVOP формата : 1
    Параметр QPel формата : Нет
    Параметр GMC формата : Без точки перехода
    Параметр матрицы формата : Выборочная
    Идентификатор кодека : XVID
    Идентификатор кодека/Подсказка : XviD
    Продолжительность : 49 м.
    Битрейт : 1799 Кбит/сек
    Ширина : 720 пикселей
    Высота : 400 пикселей
    Соотношение сторон : 16:9
    Частота кадров : 25,000 кадров/сек
    Цветовое пространство : YUV
    Субдискретизация насыщенности : 4:2:0
    Битовая глубина : 8 бит
    Тип развёртки : Прогрессивная
    Метод сжатия : С потерями
    Бит/(Пиксели*Кадры) : 0.250
    Размер потока : 642 Мбайт (80%)
    Библиотека кодирования : XviD 73

    Аудио
    Идентификатор : 1
    Формат : AC-3
    Формат/Информация : Audio Coding 3
    Расширение режима : CM (complete main)
    Параметр Endianness формата : Big
    Идентификатор кодека : 2000
    Продолжительность : 49 м.
    Вид битрейта : Постоянный
    Битрейт : 448 Кбит/сек
    Каналы : 6 каналов
    Расположение каналов : Front: L C R, Side: L R, LFE
    Частота : 48,0 КГц
    Битовая глубина : 16 бит
    Метод сжатия : С потерями
    Размер потока : 160 Мбайт (20%)
    Выравнивание : Разделение по промежуткам
    Продолжительность промежутка : 40 мс. (1,00 видеокадр)
    Время предзагрузки промежутка : 500 мс.

    Скриншоты для ознакомления:



    Залил: avproh
    Размер скачиваемого торрента: 3.14 GB (3370622976 Bytes)

    Переводчик (2013) DVDRip от New-Team | лицензия скачать через торрент бесплатно
    загрузка...
    Рейтинг →
     (голосов: 1, оценка 4/5, голосовать можно 1 раз )

    Другие торренты по теме:

  • Переводчик (2014) WEB-DL 720p от MediaClub скачать через торрент бесплатно
  • Переводчик (2014) HDTVRip 720p от MediaClub скачать через торрент бесплатно
  • Переводчик (2014) HDTVRip скачать через торрент бесплатно
  • Переводчик (2014) SATRip скачать через торрент бесплатно
  • Переводчик (2013) HDTVRip-AVC скачать через торрент бесплатно
  • Переводчик (2014) WEB-DLRip AVC от Kinoalleya скачать через торрент бесплатно
  • Переводчик (2013) DVD9 R5 от New-Team | лицензия скачать через торрент бесплатно
  • Переводчик (2013) DVDRip-AVC от New-Team | лицензия скачать через торрент бесплатно


    • Комментарии (0):

      Информация

      Информация

        Посетители, находящиеся в группе Гости, не могут оставлять комментарии в данной новости.

        ↓ Меню



        ↓ Опрос

        А Вы добавили сайт в закладки?
        Да
        Не


        Top 10 за месяц (Фильмы)