.
Авторизация | Регистрация
Хочешь лучшие торренты? Добавь свой email!
Добавить
» » Максимальное Ускорение / Maximum Overdrive (1986) DVDRip от New-Team | P скачать через торрент бесплатно




    Максимальное Ускорение / Maximum Overdrive (1986) DVDRip от New-Team | P скачать через торрент бесплатно

    Опубликовал: Админ | Дата: 27-02-2015, 11:10 | Просмотров: 318


    Снималось в: США
    Создали в: De Laurentiis, De Laurentiis Entertainment Group (DEG)

    Категория жанра: боевик, триллер, драма
    Создали в: 1986
    Время просмотра: 01:33:39

    Перевод текста: Профессиональный (многоголосый, закадровый)
    Оригинальная аудиодорожка: нет
    Субтитры подготовлены: нет

    Главный режиссер: Стивен Кинг / Stephen King

    Актеры:
    Эмилио Эстевез, Пэт Хингл, Лора Хэррингтон, Ярдли Смит, Джон Шорт, Эллен МакЭлдафф, Дж. К. Куин, Кристофер Мёрни, Холтер Грэм, Фрэнки Фэйзон...

    Сюжет:
    Когда комета Ри-М проходит через орбиту Земли и задевает ее своим хвостом, происходит глобальная катастрофа. Перестают качать насосы, выходят из строя компьютеры, электрические ножи режут домохозяек, а газонокосилки косят людей как траву. Внезапно ожившие машины из лучших друзей человека превращаются в его злейших врагов, жаждущих человеческой крови. Особенно безжалостно ведут себя огромные грузовики, давящие всех на своем пути. Горстка людей во главе с Билли Робинсоном, укрывшись от стаи взбесившихся грузовиков в здании бензозаправочной станции, готовится дать последний бой взбунтовавшимся машинам…



    Исходник: DVD9 R5
    Тип релиза: DVDRip
    Контейнер: AVI

    Информация о видео: 720x304 (2.35:1), 25 fps, XviD ~ 1770 kbps avg, 0.323 bit/pixel
    Информация о звуке: 48 kHz, Dolby Digital AC3 5,1, 448 kbps

    Раздача от:
    MediaInfo

    Общее
    Полное имя : E:Tracker2014Максимальное ускорениеMaksimalnoe.uskorenie.1986.DVDRip_New-team_by_AVP_Studio.avi
    Формат : AVI
    Формат/Информация : Audio Video Interleave
    Размер файла : 1,46 Гбайт
    Продолжительность : 1 ч. 33 м.
    Общий поток : 2228 Кбит/сек
    Программа кодирования : VirtualDubModRus 1.5.10.2 (build 2542/release)
    Библиотека кодирования : VirtualDubMod build 2542/release

    Видео
    Идентификатор : 0
    Формат : MPEG-4 Visual
    Профиль формата : Advanced Simple@L5
    Параметр BVOP формата : 1
    Параметр QPel формата : Нет
    Параметр GMC формата : Без точки перехода
    Параметр матрицы формата : Выборочная
    Идентификатор кодека : XVID
    Идентификатор кодека/Подсказка : XviD
    Продолжительность : 1 ч. 33 м.
    Битрейт : 1770 Кбит/сек
    Ширина : 720 пикселей
    Высота : 304 пикселя
    Соотношение сторон : 2,35:1
    Частота кадров : 25,000 кадров/сек
    Цветовое пространство : YUV
    Субдискретизация насыщенности : 4:2:0
    Битовая глубина : 8 бит
    Тип развёртки : Прогрессивная
    Метод сжатия : С потерями
    Бит/(Пиксели*Кадры) : 0.323
    Размер потока : 1,16 Гбайт (79%)
    Библиотека кодирования : XviD 73

    Аудио
    Идентификатор : 1
    Формат : AC-3
    Формат/Информация : Audio Coding 3
    Расширение режима : CM (complete main)
    Параметр Endianness формата : Big
    Идентификатор кодека : 2000
    Продолжительность : 1 ч. 33 м.
    Вид битрейта : Постоянный
    Битрейт : 448 Кбит/сек
    Каналы : 6 каналов
    Расположение каналов : Front: L C R, Side: L R, LFE
    Частота : 48,0 КГц
    Битовая глубина : 16 бит
    Метод сжатия : С потерями
    Размер потока : 300 Мбайт (20%)
    Выравнивание : Разделение по промежуткам
    Продолжительность промежутка : 40 мс. (1,00 видеокадр)
    Время предзагрузки промежутка : 500 мс

    Скриншоты для ознакомления



    Залил: AVPStudio
    Размер скачиваемого торрента: 1.46 GB (1564559360 Bytes)

    Максимальное Ускорение / Maximum Overdrive (1986) DVDRip от New-Team | P скачать через торрент бесплатно
    загрузка...
    Рейтинг →
     (голосов: 1, оценка 3/5, голосовать можно 1 раз )

    Другие торренты по теме:

  • Максимальное Ускорение / Maximum Overdrive (1986) DVDRip от New-Team | P скачать через торрент бесплатно
  • Максимальное Ускорение / Maximum Overdrive (1986) DVDRip-AVC от New-Team | P скачать через торрент бесплатно
  • Максимальное ускорение / Maximum Overdrive (1986) BDRip 720p | P2, A
  • Максимальное ускорение / Maximum Overdrive (1986) BDRip от HQCLUB | P2, A


    • Комментарии (0):

      Информация

      Информация

        Посетители, находящиеся в группе Гости, не могут оставлять комментарии в данной новости.

        ↓ Меню



        ↓ Опрос

        А Вы добавили сайт в закладки?
        Да
        Не


        Top 10 за месяц (Фильмы)