.
Авторизация | Регистрация
Хочешь лучшие торренты? Добавь свой email!
Добавить
» » Воздушный маршал / Non-Stop (2014) BDRip 1080p | Лицензия скачать через торрент бесплатно




    Воздушный маршал / Non-Stop (2014) BDRip 1080p | Лицензия скачать через торрент бесплатно

    Опубликовал: Админ | Дата: 27-02-2015, 11:10 | Просмотров: 188



    Детально о кино
    Русское название: Воздушный маршал
    Русское название в мировом прокате: Non-Stop
    Создали в: 2014
    Категория жанра: Боевик, триллер, детектив
    Главный режиссер: Жауме Коллет-Серра
    Актеры: Лиам Нисон, Джулианна Мур, Скут МакНэйри, Мишель Докери, Нэйт Паркер, Кори Столл, Лупита Нионго, Омар Метуолли, Джейсон Батлер Харнер, Лайнас Роуч

    Сюжет фильма: Межконтинентальный авиарейс. Билл Маркс, воздушный маршал, который обеспечивает безопасность пассажиров, получает сообщения с угрозами от маньяка-террориста. Преступник просчитал все ходы и подставил под обвинение самого спецагента. Теперь Маркс — цель спецслужб США. Ему остается одно: вычислить и обезвредить преступника, спасти пассажиров и свою любовь, которую он обретает на краю гибели. До взрыва остаются считанные минуты…



    Снималось в: США
    Время просмотра: 01:46:37
    Перевод текста: Профессиональный (полное дублирование) - Лицензия

    Файл
    Качество фильма: BDRip 1080p
    Тип видео: MKV
    Информация о видео: MPEG-4/AVC, 1920х800 (2.40:1), 11.3 Мбит/сек, 23.976 кадра/сек
    Информация о звуке 1: Русский (AC3, 6 каналов, 448 Кбит/сек)
    Информация о звуке 2: Русский (DTS, 6 каналов, 768 Кбит/сек)
    Информация о звуке 3: Английский (AC3, 6 каналов, 640 Кбит/cек)
    Субтитры: Русские (форс.), английские (Full, SDH)
    Навигация по главам: Есть

    MediaInfo:
    Общее
    Уникальный идентификатор : 222723065080618855503736869287904227721 (0xA78EE6EBBAC2272EAF0F7BD66F493189)
    Полное имя : Non-Stop. (2014) BDRip 1080p.mkv
    Формат : Matroska
    Версия формата : Version 2
    Размер файла : 9,74 Гбайт
    Продолжительность : 1 ч. 46 м.
    Общий поток : 13,1 Мбит/сек
    Название фильма : Non-Stop. 2014
    Дата кодирования : UTC 2014-06-01 13:25:55
    Программа кодирования : mkvmerge v5.8.0 (;No Sleep / Pillow;) built on Sep 2 2012 15:37:04
    Библиотека кодирования : libebml v1.2.3 + libmatroska v1.3.0

    Видео
    Идентификатор : 1
    Формат : AVC
    Формат/Информация : Advanced Video Codec
    Профиль формата : High@L4.1
    Параметр CABAC формата : Да
    Параметр ReFrames формата : 5 кадров
    Идентификатор кодека : V_MPEG4/ISO/AVC
    Продолжительность : 1 ч. 46 м.
    Битрейт : 11,3 Мбит/сек
    Ширина : 1920 пикселей
    Высота : 800 пикселей
    Соотношение сторон : 2,40:1
    Режим частоты кадров : Постоянный
    Частота кадров : 23,976 кадра/сек
    Цветовое пространство : YUV
    Субдискретизация насыщенности : 4:2:0
    Битовая глубина : 8 бит
    Тип развёртки : Прогрессивная
    Бит/(Пиксели*Кадры) : 0.305
    Размер потока : 8,16 Гбайт (84%)
    Заголовок : CHD
    Библиотека кодирования : x264 core 138 r2356 a1d3d17
    Настройки программы : cabac=1 / ref=5 / deblock=1:-3:-3 / analyse=0x3:0x113 / me=umh / subme=10 / psy=1 / psy_rd=1.05:0.10 / mixed_ref=1 / me_range=32 / chroma_me=1 / trellis=2 / 8x8dct=1 / cqm=0 / deadzone=21,11 / fast_pskip=0 / chroma_qp_offset=-2 / threads=18 / lookahead_threads=1 / sliced_threads=0 / nr=0 / decimate=1 / interlaced=0 / bluray_compat=0 / constrained_intra=0 / bframes=5 / b_pyramid=2 / b_adapt=2 / b_bias=0 / direct=3 / weightb=1 / open_gop=0 / weightp=2 / keyint=250 / keyint_min=23 / scenecut=40 / intra_refresh=0 / rc=2pass / mbtree=0 / bitrate=11250 / ratetol=1.0 / qcomp=0.70 / qpmin=0 / qpmax=69 / qpstep=4 / cplxblur=20.0 / qblur=0.5 / ip_ratio=1.40 / pb_ratio=1.30 / aq=2:1.00
    Язык : English
    Default : Да
    Forced : Нет

    Аудио #1
    Идентификатор : 2
    Формат : AC-3
    Формат/Информация : Audio Coding 3
    Расширение режима : CM (complete main)
    Параметр Endianness формата : Big
    Идентификатор кодека : A_AC3
    Продолжительность : 1 ч. 46 м.
    Вид битрейта : Постоянный
    Битрейт : 448 Кбит/сек
    Каналы : 6 каналов
    Расположение каналов : Front: L C R, Side: L R, LFE
    Частота : 48,0 КГц
    Битовая глубина : 16 бит
    Метод сжатия : С потерями
    Размер потока : 342 Мбайт (3%)
    Заголовок : Dub | Лицензия
    Язык : Russian
    Default : Да
    Forced : Нет

    Аудио #2
    Идентификатор : 3
    Формат : DTS
    Формат/Информация : Digital Theater Systems
    Режим : 16
    Параметр Endianness формата : Big
    Идентификатор кодека : A_DTS
    Продолжительность : 1 ч. 46 м.
    Вид битрейта : Постоянный
    Битрейт : 768 Кбит/сек
    Каналы : 6 каналов
    Расположение каналов : Front: L C R, Side: L R, LFE
    Частота : 48,0 КГц
    Битовая глубина : 24 бит
    Метод сжатия : С потерями
    Размер потока : 586 Мбайт (6%)
    Заголовок : Dub | Лицензия
    Язык : Russian
    Default : Нет
    Forced : Нет

    Аудио #3
    Идентификатор : 4
    Формат : AC-3
    Формат/Информация : Audio Coding 3
    Расширение режима : CM (complete main)
    Параметр Endianness формата : Big
    Идентификатор кодека : A_AC3
    Продолжительность : 1 ч. 46 м.
    Вид битрейта : Постоянный
    Битрейт : 640 Кбит/сек
    Каналы : 6 каналов
    Расположение каналов : Front: L C R, Side: L R, LFE
    Частота : 48,0 КГц
    Битовая глубина : 16 бит
    Метод сжатия : С потерями
    Размер потока : 488 Мбайт (5%)
    Заголовок : Eng
    Язык : English
    Default : Нет
    Forced : Нет

    Текст #1
    Идентификатор : 5
    Формат : UTF-8
    Идентификатор кодека : S_TEXT/UTF8
    Идентификатор кодека/Информация : UTF-8 Plain Text
    Заголовок : Forced
    Язык : Russian
    Default : Да
    Forced : Да

    Текст #2
    Идентификатор : 6
    Формат : UTF-8
    Идентификатор кодека : S_TEXT/UTF8
    Идентификатор кодека/Информация : UTF-8 Plain Text
    Заголовок : Full
    Язык : English
    Default : Нет
    Forced : Нет

    Текст #3
    Идентификатор : 7
    Формат : UTF-8
    Идентификатор кодека : S_TEXT/UTF8
    Идентификатор кодека/Информация : UTF-8 Plain Text
    Заголовок : SDH
    Язык : English
    Default : Нет
    Forced : Нет

    Меню
    00:00:00.000 : en:00:00:00.000
    00:04:24.639 : en:00:04:24.639
    00:10:29.045 : en:00:10:29.045
    00:14:47.053 : en:00:14:47.053
    00:18:51.839 : en:00:18:51.839
    00:24:22.127 : en:00:24:22.127
    00:29:44.574 : en:00:29:44.574
    00:35:48.605 : en:00:35:48.605
    00:39:28.491 : en:00:39:28.491
    00:45:41.572 : en:00:45:41.572
    00:49:03.941 : en:00:49:03.941
    00:55:17.731 : en:00:55:17.731
    01:01:59.257 : en:01:01:59.257
    01:08:42.327 : en:01:08:42.327
    01:12:16.999 : en:01:12:16.999
    01:18:14.982 : en:01:18:14.982
    01:26:02.032 : en:01:26:02.032
    01:30:46.191 : en:01:30:46.191
    01:36:14.727 : en:01:36:14.727
    01:40:13.799 : en:01:40:13.799

    Скриншоты для ознакомления:


    Релиз подготовил:
    Размер скачиваемого торрента: 9.74 GB (10456464099 Bytes)

    Воздушный маршал / Non-Stop (2014) BDRip 1080p | Лицензия скачать через торрент бесплатно
    загрузка...
    Рейтинг →
     (голосов: 1, оценка 4/5, голосовать можно 1 раз )

    Другие торренты по теме:

  • Воздушный маршал / non-stop (2014) скачать через торрент бесплатно
  • Воздушный маршал / Non-Stop (2014) TS скачать через торрент бесплатно
  • OST - Воздушный маршал / Non-Stop (20140 MP3
  • Воздушный маршал / Non-Stop (2014) HDRip | Чистый звук
  • Воздушный маршал / Non-Stop (2014) HDRip-AVC | Чистый звук
  • Воздушный маршал / Non-Stop (2014) BDRip 720p | Чистый звук
  • Воздушный маршал / Non-Stop (2014) HDRip | Чистый звук
  • Воздушный маршал / Non-Stop (2014) HDRip | Чистый звук


    • Комментарии (0):

      Информация

      Информация

        Посетители, находящиеся в группе Гости, не могут оставлять комментарии в данной новости.

        ↓ Меню



        ↓ Опрос

        А Вы добавили сайт в закладки?
        Да
        Не


        Top 10 за месяц (Фильмы)