.
Авторизация | Регистрация
Хочешь лучшие торренты? Добавь свой email!
Добавить
» » Путешествия Гулливера / Gullivers Travels (1996) DVDRip от New-Team | P2 скачать через торрент бесплатно




    Путешествия Гулливера / Gullivers Travels (1996) DVDRip от New-Team | P2 скачать через торрент бесплатно

    Опубликовал: Админ | Дата: 27-02-2015, 11:10 | Просмотров: 253


    Снималось в: США, Великобритания
    Создали в: Channel 4 Television Corporation, Hallmark Entertainment, Jim Henson Productions

    Категория жанра: фэнтези, приключения, семейный
    Создали в: 1996
    Время просмотра: 02:59:20 (01:29:22 + 01:29:58)

    Перевод текста: Профессиональный (двухголосый закадровый)
    Оригинальная аудиодорожка: нет
    Субтитры подготовлены: нет

    Главный режиссер: Чарльз Старридж / Charles Sturridge

    Актеры:
    Тед Дэнсон, Мэри Стинберген, Джеймс Фокс, Нед Битти, Эдвард Фокс, Роберт Харди, Николас Линдхерст, Фиби Николлс, Керин Парсонс, Эдвард Петербридж...

    Сюжет:
    Он был великаном в Стране Лилипутов и лилипутом в Стране Великанов. Он в одиночку сражался с вражеским флотом и гигантскими осами. Он побывал на Летающем острове ученых и в Стране Говорящих Лошадей. Он разговаривал с духами мертвых и едва не обрел бессмертие… И единственным человеком, поверившим во все это, был его сын…



    Исходник: DVD9 R5
    Тип релиза: DVDRip
    Контейнер: AVI

    Информация о видео: 704x528 (4:3), 25 fps, XviD ~ 1866 kbps avg, 0.201 bit/pixel
    Информация о звуке: 48 kHz, Dolby Digital AC3 5,1, 448 kbps

    Раздача от:
    MediaInfo

    Общее
    Полное имя : Puteshestviya.Gullivera.1996.DVDRip_New-team_by_AVP_Studio1.avi
    Формат : AVI
    Формат/Информация : Audio Video Interleave
    Размер файла : 1,45 Гбайт
    Продолжительность : 1 ч. 29 м.
    Общий поток : 2323 Кбит/сек
    Программа кодирования : VirtualDubModRus 1.5.10.2 (build 2542/release)
    Библиотека кодирования : VirtualDubMod build 2542/release

    Видео
    Идентификатор : 0
    Формат : MPEG-4 Visual
    Профиль формата : Advanced Simple@L5
    Параметр BVOP формата : 1
    Параметр QPel формата : Нет
    Параметр GMC формата : Без точки перехода
    Параметр матрицы формата : Выборочная
    Идентификатор кодека : XVID
    Идентификатор кодека/Подсказка : XviD
    Продолжительность : 1 ч. 29 м.
    Битрейт : 1866 Кбит/сек
    Ширина : 704 пикселя
    Высота : 528 пикселей
    Соотношение сторон : 4:3
    Частота кадров : 25,000 кадров/сек
    Цветовое пространство : YUV
    Субдискретизация насыщенности : 4:2:0
    Битовая глубина : 8 бит
    Тип развёртки : Прогрессивная
    Метод сжатия : С потерями
    Бит/(Пиксели*Кадры) : 0.201
    Размер потока : 1,16 Гбайт (80%)
    Библиотека кодирования : XviD 73

    Аудио
    Идентификатор : 1
    Формат : AC-3
    Формат/Информация : Audio Coding 3
    Расширение режима : CM (complete main)
    Параметр Endianness формата : Big
    Идентификатор кодека : 2000
    Продолжительность : 1 ч. 29 м.
    Вид битрейта : Постоянный
    Битрейт : 448 Кбит/сек
    Каналы : 6 каналов
    Расположение каналов : Front: L C R, Side: L R, LFE
    Частота : 48,0 КГц
    Битовая глубина : 16 бит
    Метод сжатия : С потерями
    Размер потока : 286 Мбайт (19%)
    Выравнивание : Разделение по промежуткам
    Продолжительность промежутка : 40 мс. (1,00 видеокадр)
    Время предзагрузки промежутка : 500 мс

    Скриншоты для ознакомления



    Залил: AVPStudio
    Размер скачиваемого торрента: 2.91 GB (3125317632 Bytes)

    Путешествия Гулливера / Gullivers Travels (1996) DVDRip от New-Team | P2 скачать через торрент бесплатно
    загрузка...
    Рейтинг →
     (голосов: 1, оценка 3/5, голосовать можно 1 раз )

    Другие торренты по теме:

  • Путешествия Гулливера / Gullivers Travels (1996) DVDRip | P2
  • Джонатан Свифт - Путешествия Гулливера (2007) MP3
  • Путешествия Гулливера / Gullivers Travels (1996) DVDRip-AVC от New-Team | P2 скачать через торрент бесплатно
  • Путешествия Гулливера / Gullivers Travels (1996) DVDRip от New-Team | P2 скачать через торрент бесплатно
  • Путешествия Гулливера / Gullivers Travels (1939) HDRip от Kaztorrents | P
  • Путешествия Гулливера / Gullivers Travels (1996) DVDRip | P


    • Комментарии (0):

      Информация

      Информация

        Посетители, находящиеся в группе Гости, не могут оставлять комментарии в данной новости.

        ↓ Меню



        ↓ Опрос

        А Вы добавили сайт в закладки?
        Да
        Не


        Top 10 за месяц (Фильмы)