.
Авторизация | Регистрация
Хочешь лучшие торренты? Добавь свой email!
Добавить
» » Телеведущий: И снова здравствуйте / Anchorman 2: The Legend Continues (2013) BDRip-AVC | iPad | D скачать через торрент бесплатно




    Телеведущий: И снова здравствуйте / Anchorman 2: The Legend Continues (2013) BDRip-AVC | iPad | D скачать через торрент бесплатно

    Опубликовал: Админ | Дата: 27-02-2015, 11:10 | Просмотров: 195



    Телеведущий: И снова здравствуйте / Anchorman 2: The Legend Continues (2013) BDRip-AVC | iPad | D
    It;s Kind of a Big Deal

    Русское название: Телеведущий: И снова здравствуйте
    Русское название в мировом прокате: Anchorman 2: The Legend Continues
    Создали в: 2013
    Категория жанра: комедия
    Главный режиссер: Адам МакКей
    Актеры: Уилл Феррелл, Стив Карелл, Пол Радд, Дэвид Кокнер, Кристина Эпплгейт, Дилан Бейкер, Миган Гуд, Джуда Нельсон, Джеймс Марсден, Грег Киннер,

    Сюжет фильма:
    Популярнейший телеведущий Сан-Диего 70-х годов, Рон Бургунди, возвращается, чтобы стать лучшим на первом 24-часовом новостном канале Нью-Йорка…




    Снималось в: США
    Киностудия: Paramount Pictures, Gary Sanchez Productions, Apatow Productions.

    Время просмотра: 01:52:59
    Перевод текста: Русский дублированный

    Файл
    Кодек для видео: H.264
    Качество фильма: BDRip 576p
    Информация о видео: 1024x426 (2.40:1) at 23.976 fps, AVC at 2200 kbps
    Информация о звуке:
    1: АAС 2.0 140 kbps - Русский дублированный
    Субтитры: отсутствуют

    MI

    General
    Complete name : I:modoutAnchorman.2-The.Legend.Continues.2013.576p.D.m4v
    Format : MPEG-4
    Codec ID : M4V
    File size : 1.90 GiB
    Duration : 1h 52mn
    Overall bit rate mode : Variable
    Overall bit rate : 2 414 Kbps
    Movie name : Телеведущий 2: И снова здравствуйте
    Performer : Adam McKay
    Genre : Comedy
    ContentType : Short Film
    Deion : Популярнейший телеведущий Сан-Диего 70-х годов, Рон Бургунди, возвращается, чтобы стать лучшим на первом 24-часовом новостном канале Нью-Йорка…
    Recorded date : UTC 2013-11-24 08:00:00
    Encoded date : UTC 2014-05-30 06:50:53
    Tagged date : UTC 2014-06-02 08:56:04
    Copyright : Paramount Pictures
    Cover : Yes
    Comment : It;s Kind of a Big Deal
    ContentRating : mpaa|PG-13|300|

    AppleStoreCatalogID : 762045700
    Vendor : Apple:vendor_id:2013-675564

    Video
    ID : 1
    Format : AVC
    Format/Info : Advanced Video Codec
    Format profile : High@L4.1
    Format settings, CABAC : Yes
    Format settings, ReFrames : 9 frames
    Codec ID : avc1
    Codec ID/Info : Advanced Video Coding
    Duration : 1h 52mn
    Bit rate : 2 252 Kbps
    Maximum bit rate : 13.7 Mbps
    Width : 1 024 pixels
    Height : 426 pixels
    Display aspect ratio : 2.40:1
    Frame rate mode : Constant
    Frame rate : 23.976 fps
    Color space : YUV
    Chroma subsampling : 4:2:0
    Bit depth : 8 bits
    Scan type : Progressive
    Bits/(Pixel*Frame) : 0.215
    Stream size : 1.78 GiB (93%)
    Title : Anchorman 2_ The Legend Continues _2013_
    Language : English
    Encoded date : UTC 2014-05-30 06:50:53
    Tagged date : UTC 2014-05-30 06:51:07

    Audio
    ID : 2
    Format : AAC
    Format/Info : Advanced Audio Codec
    Format profile : LC
    Codec ID : 40
    Duration : 1h 52mn
    Bit rate mode : Variable
    Bit rate : 144 Kbps
    Maximum bit rate : 231 Kbps
    Channel(s) : 2 channels
    Channel positions : Front: L R
    Sampling rate : 48.0 KHz
    Compression mode : Lossy
    Stream size : 118 MiB (6%)
    Language : English
    Encoded date : UTC 2014-05-30 06:48:22
    Tagged date : UTC 2014-05-30 06:51:07

    Menu
    ID : 3
    Codec ID : text
    Duration : 1h 52mn
    Encoded date : UTC 2014-05-30 06:51:29
    Tagged date : UTC 2014-05-30 06:51:29
    Bit rate mode : CBR

    x264

    x264 info: frame I:1919 Avg QP:15.92 size: 78012
    x264 info: frame P:35591 Avg QP:18.79 size: 24852
    x264 info: frame B:125038 Avg QP:20.87 size: 6992
    x264 info: consecutive B-frames: 2.5% 2.0% 8.0% 23.7% 19.8% 35.1% 3.9% 2.7% 1.6% 0.2% 0.1% 0.2% 0.1%
    x264 info: mb I I16..4: 7.3% 52.5% 40.2%
    x264 info: mb P I16..4: 0.4% 5.9% 2.2% P16..4: 26.7% 31.6% 18.0% 6.7% 1.9% skip: 6.6%
    x264 info: mb B I16..4: 0.0% 0.6% 0.2% B16..8: 29.5% 18.3% 3.7% direct: 5.3% skip:42.2% L0:36.4% L1:41.9% BI:21.7%
    x264 info: 8x8 transform intra:64.0% inter:34.9%
    x264 info: coded y,uvDC,uvAC intra: 93.2% 80.4% 63.7% inter: 19.5% 12.0% 6.1%
    x264 info: i16 v,h,dc,p: 18% 17% 15% 50%
    x264 info: i8 v,h,dc,ddl,ddr,vr,hd,vl,hu: 13% 13% 8% 8% 10% 11% 11% 12% 14%
    x264 info: i4 v,h,dc,ddl,ddr,vr,hd,vl,hu: 15% 14% 4% 8% 12% 12% 11% 10% 12%
    x264 info: i8c dc,h,v,p: 33% 30% 21% 15%
    x264 info: Weighted P-Frames: Y:2.1% UV:1.4%
    x264 info: ref P L0: 59.4% 10.2% 13.7% 5.6% 3.8% 2.8% 2.1% 1.2% 1.1% 0.1% 0.0%
    x264 info: ref B L0: 82.3% 8.2% 4.2% 1.9% 1.4% 1.0% 0.8% 0.4%
    x264 info: ref B L1: 93.6% 6.4%
    x264 info: kb/s:2252.08
    iTunes Tags


    Sort Name: Anchorman 2: The Legend Continues
    XID: Apple:vendor_id:2013-675564
    Content ID: 762045700
    Copyright: Paramount Pictures
    ScreenWriters: Уилл Феррелл, Адам МакКей
    Producers: Джудд Апатоу, Уилл Феррелл, Адам МакКей
    Director: Адам МакКей
    Cast: Уилл Феррелл, Стив Карелл, Пол Радд, Дэвид Кокнер, Кристина Эпплгейт, Дилан Бейкер, Миган Гуд, Джуда Нельсон, Джеймс Марсден, Грег Киннер // Will Ferrell (Ron Burgundy), Steve Carell (Brick Tamland), Paul Rudd (Brian Fantana), Luke Wilson (Frank Vitchard), Christina Applegate (Veronica Corningstone), David Koechner (Champ Kind), James Marsden (Jack Lime), Kristen Wiig (Chani Lastname), Meagan Good (Linda Jackson), Dylan Baker (Freddie Shapp), Tina Fey (Entertainment Tonight Reporter), Kirsten Dunst (El Trousias Maiden of the Clouds), Liam Neeson (History Channel Host), Vince Vaughn (Wes Mantooth), Marion Cotillard (CBS News Anchor), Harrison Ford (Mack Tannen), Will Smith (ESPN Reporter), Sacha Baron Cohen (BBC News Anchor), Jim Carrey (CBC News Anchor), Amy Poehler (Entertainment Tonight Host), Kanye West (MTV Host)
    Rating: PG-13
    Long Deion: Популярнейший телеведущий Сан-Диего 70-х годов, Рон Бургунди, возвращается, чтобы стать лучшим на первом 24-часовом новостном канале Нью-Йорка…
    Deion: Популярнейший телеведущий Сан-Диего 70-х годов, Рон Бургунди, возвращается, чтобы стать лучшим на первом 24-часовом новостном канале Нью-Йорка…
    Release Date: 2013-11-24T08:00:00Z
    Genre: Comedy
    Artist: Adam McKay
    Name: Телеведущий 2: И снова здравствуйте
    Comments: It;s Kind of a Big Deal






    Залил: gekka
    Размер скачиваемого торрента: 1.90 GB (2045386005 Bytes)

    Телеведущий: И снова здравствуйте / Anchorman 2: The Legend Continues (2013) BDRip-AVC | iPad | D скачать через торрент бесплатно
    загрузка...
    Рейтинг →
     (голосов: 1, оценка 5/5, голосовать можно 1 раз )

    Другие торренты по теме:

  • OST - Телеведущий: И снова здравствуйте / Anchorman 2: The Legend Continues (2013) MP3 скачать через торрент бесплатно
  • Телеведущий: И снова здравствуйте / Anchorman 2: The Legend Continues (2013) WEB-DLRip | iTunes скачать через торрент бесплатно
  • Телеведущий: И Снова Здравствуйте / Anchorman 2: The Legend Continues (2013) WEB-DLRip от Scarabey | iTunes Russia
  • Телеведущий: И снова здравствуйте / Anchorman 2: The Legend Continues (2013) HDRip скачать через торрент бесплатно
  • Телеведущий: И снова здравствуйте / Anchorman 2: The Legend Continues (2013) HDRip | Лицензия скачать через торрент бесплатно
  • Телеведущий: И снова здравствуйте / Anchorman 2: The Legend Continues (2013) BDRip-AVC от HELLYWOOD | Лицензия


    • Комментарии (0):

      Информация

      Информация

        Посетители, находящиеся в группе Гости, не могут оставлять комментарии в данной новости.

        ↓ Меню



        ↓ Опрос

        А Вы добавили сайт в закладки?
        Да
        Не


        Top 10 за месяц (Фильмы)