.
Авторизация | Регистрация
Хочешь лучшие торренты? Добавь свой email!
Добавить
» » Воздушный маршал / Non-Stop (2014) BDRip-AVC | iPad | D скачать через торрент бесплатно




    Воздушный маршал / Non-Stop (2014) BDRip-AVC | iPad | D скачать через торрент бесплатно

    Опубликовал: Админ | Дата: 27-02-2015, 11:10 | Просмотров: 150



    Воздушный маршал / Non-Stop (2014) BDRip-AVC | iPad | D
    Захват самолёта - это только начало

    Русское название: Воздушный маршал
    Русское название в мировом прокате: Non-Stop
    Создали в: 2014
    Категория жанра: детектив, триллер, боевик
    Главный режиссер: Хауме Кольет-Серра
    Актеры: Лиам Нисон, Джулианна Мур, Скут МакНэйри, Мишель Докери, Нэйт Паркер, Кори Столл, Лупита Нионго, Омар Метуолли, Джейсон Батлер Харнер, Лайнас Роуч

    Сюжет фильма:
    Межконтинентальный авиарейс. Билл Маркс, воздушный маршал, который обеспечивает безопасность пассажиров, получает сообщения с угрозами от маньяка-террориста. Преступник просчитал все ходы и подставил под обвинение самого спецагента. Теперь Маркс - цель спецслужб США. Ему остается одно: вычислить и обезвредить преступника, спасти пассажиров и свою любовь, которую он обретает на краю гибели. До взрыва остаются считанные минуты..



    Снималось в: Великобритания, Франция, США
    Киностудия: StudioCanal, Anton Capital Entertainment (ACE), Silver Pictures

    Время просмотра: 01:46:37
    Перевод текста: Русский дублированный

    Файл
    Кодек для видео: H.264
    Качество фильма: BDRip 576p
    Информация о видео: 1024x428 (2.40:1) at 24.000 fps, AVC at 2800 kbps
    Информация о звуке:
    1: АAС 2.0 137 kbps - Русский дублированный
    Субтитры: отсутствуют

    MediaInfo

    General
    Complete name : C:DownloadsNon-Stop.2014.576p.D.m4v
    Format : MPEG-4
    Codec ID : M4V
    File size : 2.22 GiB
    Duration : 1h 46mn
    Overall bit rate mode : Variable
    Overall bit rate : 2 987 Kbps
    Movie name : Воздушный маршал
    Performer : Jaume Collet-Serra
    Genre : Action Adventure
    ContentType : Short Film
    Deion : Фильм расскажет историю воздушного маршала, в чьи задачи входит обеспечение безопасности на борту пассажирского авиалайнера, совершающего внутренний рейс.
    Recorded date : UTC 2014-02-28 08:00:00
    Encoded date : UTC 2014-06-02 12:19:17
    Tagged date : UTC 2014-06-02 12:20:36
    Copyright : StudioCanal, Anton Capital Entertainment (ACE), Silver Pictures
    Cover : Yes
    Comment : Захват самолёта - это только начало
    ContentRating : mpaa|PG-13|300|

    Title/Sort : Non-Stop
    LongDeion : Фильм расскажет историю воздушного маршала, в чьи задачи входит обеспечение безопасности на борту пассажирского авиалайнера, совершающего внутренний рейс.
    AppleStoreCatalogID : 814487529
    Vendor : Apple:vendor_id:2014-606826

    Video
    ID : 1
    Format : AVC
    Format/Info : Advanced Video Codec
    Format profile : High@L4.1
    Format settings, CABAC : Yes
    Format settings, ReFrames : 10 frames
    Codec ID : avc1
    Codec ID/Info : Advanced Video Coding
    Duration : 1h 46mn
    Bit rate : 2 837 Kbps
    Maximum bit rate : 12.2 Mbps
    Width : 1 024 pixels
    Height : 428 pixels
    Display aspect ratio : 2.40:1
    Frame rate mode : Constant
    Frame rate : 23.976 fps
    Color space : YUV
    Chroma subsampling : 4:2:0
    Bit depth : 8 bits
    Scan type : Progressive
    Bits/(Pixel*Frame) : 0.270
    Stream size : 2.11 GiB (95%)
    Title : Non_Stop.2014
    Language : English
    Encoded date : UTC 2014-06-02 12:19:17
    Tagged date : UTC 2014-06-02 12:19:35

    Audio
    ID : 2
    Format : AAC
    Format/Info : Advanced Audio Codec
    Format profile : LC
    Codec ID : 40
    Duration : 1h 46mn
    Bit rate mode : Variable
    Bit rate : 137 Kbps
    Maximum bit rate : 160 Kbps
    Channel(s) : 2 channels
    Channel positions : Front: L R
    Sampling rate : 48.0 KHz
    Compression mode : Lossy
    Stream size : 105 MiB (5%)
    Language : English
    Encoded date : UTC 2014-06-02 12:16:33
    Tagged date : UTC 2014-06-02 12:19:35

    Menu
    ID : 3
    Codec ID : text
    Duration : 1h 46mn
    Encoded date : UTC 2014-06-02 12:19:54
    Tagged date : UTC 2014-06-02 12:19:54
    Bit rate mode : CBR

    x264

    x264 info: frame I:1684 Avg QP:14.63 size: 78725
    x264 info: frame P:38526 Avg QP:16.68 size: 26373
    x264 info: frame B:113174 Avg QP:19.05 size: 9894
    x264 info: consecutive B-frames: 5.9% 4.3% 9.8% 16.6% 20.1% 32.4% 5.4% 2.2% 1.2% 0.6% 0.3% 0.2% 0.2% 0.3% 0.4%
    x264 info: mb I I16..4: 19.1% 50.9% 30.0%
    x264 info: mb P I16..4: 2.4% 9.6% 2.9% P16..4: 32.9% 34.7% 11.3% 3.2% 0.4% skip: 2.6%
    x264 info: mb B I16..4: 0.1% 0.9% 0.3% B16..8: 37.4% 22.1% 3.2% direct: 6.5% skip:29.5% L0:38.0% L1:44.3% BI:17.7%
    x264 info: 8x8 transform intra:62.4% inter:37.6%
    x264 info: coded y,uvDC,uvAC intra: 92.9% 86.5% 71.7% inter: 25.3% 20.5% 9.6%
    x264 info: i16 v,h,dc,p: 6% 6% 14% 74%
    x264 info: i8 v,h,dc,ddl,ddr,vr,hd,vl,hu: 11% 10% 8% 9% 13% 12% 12% 12% 13%
    x264 info: i4 v,h,dc,ddl,ddr,vr,hd,vl,hu: 11% 9% 6% 9% 15% 14% 13% 11% 13%
    x264 info: i8c dc,h,v,p: 37% 22% 19% 22%
    x264 info: Weighted P-Frames: Y:1.9% UV:1.2%
    x264 info: ref P L0: 57.7% 7.4% 15.7% 7.3% 4.0% 2.8% 2.0% 1.1% 0.9% 0.8% 0.2% 0.0%
    x264 info: ref B L0: 86.0% 6.9% 3.2% 1.4% 0.9% 0.7% 0.5% 0.3% 0.2%
    x264 info: ref B L1: 94.5% 5.5%
    x264 info: kb/s:2836.66
    iTunes tags


    Sort Name: Non-Stop
    XID: Apple:vendor_id:2014-606826
    Content ID: 814487529
    Copyright: StudioCanal, Anton Capital Entertainment (ACE), Silver Pictures
    ScreenWriters: Джон В. Ричардсон, Кристофер Роач, Райан Энгль
    Producers: Алекс Хейнеман, Эндрю Рона, Джоэл Силвер
    Director: Хауме Кольет-Серра
    Cast: Лиам Нисон, Джулианна Мур, Скут МакНэйри, Мишель Докери, Нэйт Паркер, Кори Столл, Лупита Нионго, Омар Метуолли, Джейсон Батлер Харнер, Лайнас Роуч // Liam Neeson (Bill Marks), Julianne Moore (Jen Summers), Anson Mount (Jack Hammond), Michelle Dockery (Nancy), Bar Paly (Iris Marianne), Corey Stoll (Austin), Scoot McNairy (Tom Bowen), Linus Roache (David McMillan), Jon Abrahams (David Norton), Lupita Nyong;o (Gwen), Omar Metwally (Dr. Fahim Nasir), Jason Butler Harner (Kyle Rice), Quinn McColgan (Becca), Corey Hawkins (Travis Mitchell), Nate Parker (Zack White)
    Rating: PG-13
    Long Deion: Фильм расскажет историю воздушного маршала, в чьи задачи входит обеспечение безопасности на борту пассажирского авиалайнера, совершающего внутренний рейс.
    Deion: Фильм расскажет историю воздушного маршала, в чьи задачи входит обеспечение безопасности на борту пассажирского авиалайнера, совершающего внутренний рейс.
    Release Date: 2014-02-28T08:00:00Z
    Genre: Action Adventure
    Artist: Jaume Collet-Serra
    Name: Воздушный маршал
    Comments: Захват самолёта - это только начало






    Залил: gekka
    Размер скачиваемого торрента: 2.22 GB (2388461502 Bytes)

    Воздушный маршал / Non-Stop (2014) BDRip-AVC | iPad | D скачать через торрент бесплатно
    загрузка...
    Рейтинг →
     (голосов: 1, оценка 3/5, голосовать можно 1 раз )

    Другие торренты по теме:

  • Воздушный маршал / non-stop (2014) скачать через торрент бесплатно
  • Воздушный маршал / Non-Stop (2014) TS скачать через торрент бесплатно
  • OST - Воздушный маршал / Non-Stop (20140 MP3
  • Воздушный маршал / Non-Stop (2014) HDRip | Чистый звук
  • Воздушный маршал / Non-Stop (2014) HDRip-AVC | Чистый звук
  • Воздушный маршал / Non-Stop (2014) BDRip 720p | Чистый звук
  • Воздушный маршал / Non-Stop (2014) HDRip | Чистый звук
  • Воздушный маршал / Non-Stop (2014) HDRip | Чистый звук


    • Комментарии (0):

      Информация

      Информация

        Посетители, находящиеся в группе Гости, не могут оставлять комментарии в данной новости.

        ↓ Меню



        ↓ Опрос

        А Вы добавили сайт в закладки?
        Да
        Не


        Top 10 за месяц (Фильмы)