.
Авторизация | Регистрация
Хочешь лучшие торренты? Добавь свой email!
Добавить
» » Барон Мюнхгаузен / Baron Munchhausen (2012) DVB от MediaClub | D скачать торрент бесплатно




    Барон Мюнхгаузен / Baron Munchhausen (2012) DVB от MediaClub | D скачать торрент бесплатно

    Опубликовал: Админ | Дата: 27-02-2015, 11:10 | Просмотров: 254



    Детально о кино
    Русское название: Барон Мюнхгаузен
    Русское название в мировом прокате: Baron Munchhausen
    Создали в: 2012
    Категория жанра: Комедия, приключения
    Главный режиссер: Андреас Линке
    Актеры: Ян Йозеф Лиферс, Джессика Шварц, Катя Риман, Хелен Оттман, Изабель Оттман, Тайфун Бадемсой, Геннадий Венгеров, Ларс Рудольф, Лино Бадемсой, Тони Аранго

    Сюжет фильма:
    В небольшой гостинице, обедневший Барон Мюнхгаузен рассказывает о своих приключениях. История повествует, как барон защитил Санкт-Петербург и императрицу Екатерину от атакующих турок. Во время этой битвы он встретился с самым могущественным человеком в мире и самый быстрый человеком в мире. Чтобы победить султана, он совершил перелет на пушечном ядре в турецкий лагерь. И это еще не все события…



    Снималось в: Германия
    Киностудия: Bayerischer Rundfunk (BR), Hessischer Rundfunk (HR), S?westrundfunk (SWR)
    Время просмотра: 2 х ~ 01:27:40
    Перевод текста: Дублированный

    Файл
    Качество фильма: DVB
    Информация о видео: MPEG-2, ~ 3151 Кбит/с, 720x576@1024x576
    Информация о звуке: Русский (АС3, 2 ch, 192 Кбит/с) / (MP2, 2 ch, 192 Кбит/с)

    Семпл

    Скриншоты для ознакомления

    MI
    Общее
    Идентификатор : 1 (0x1)
    Полное имя : Baron.Mjunxgauzen.2012.DVB.MediaClubBaron.Mjunxgauzen.01.2012.DVB.MediaClub.ts
    Формат : MPEG-TS
    Размер файла : 2,32 Гбайт
    Продолжительность : 1 ч. 27 м.
    Режим общего битрейта : Переменный
    Общий поток : 3783 Кбит/сек

    Видео
    Идентификатор : 322 (0x142)
    Идентификатор меню : 10103 (0x2777)
    Формат : MPEG Video
    Версия формата : Version 2
    Профиль формата : Main@Main
    Параметр BVOP формата : Да
    Параметр матрицы формата : Выборочная
    Параметр GOP формата : Variable
    Идентификатор кодека : 2
    Продолжительность : 1 ч. 27 м.
    Вид битрейта : Переменный
    Битрейт : 3208 Кбит/сек
    Максимальный битрейт : 15,0 Мбит/сек
    Ширина : 720 пикселей
    Высота : 576 пикселей
    Соотношение сторон : 16:9
    Частота кадров : 25,000 кадров/сек
    Стандарт вещания : PAL
    Цветовое пространство : YUV
    Субдискретизация насыщенности : 4:2:0
    Битовая глубина : 8 бит
    Тип развёртки : Чересстрочная
    Порядок развёртки : Верхнее поле первое
    Метод сжатия : С потерями
    Бит/(Пиксели*Кадры) : 0.309
    Размер потока : 1,96 Гбайт (85%)

    Аудио #1
    Идентификатор : 405 (0x195)
    Идентификатор меню : 10103 (0x2777)
    Формат : MPEG Audio
    Версия формата : Version 1
    Профиль формата : Layer 2
    Идентификатор кодека : 4
    Продолжительность : 1 ч. 27 м.
    Вид битрейта : Постоянный
    Битрейт : 192 Кбит/сек
    Каналы : 2 канала
    Частота : 48,0 КГц
    Метод сжатия : С потерями
    Задержка видео : -284 мс.
    Размер потока : 120 Мбайт (5%)
    Язык : Russian
    Язык, дополнительно : Clean effects

    Аудио #2
    Идентификатор : 435 (0x1B3)
    Идентификатор меню : 10103 (0x2777)
    Формат : AC-3
    Формат/Информация : Audio Coding 3
    Расширение режима : CM (complete main)
    Параметр Endianness формата : Big
    Идентификатор кодека : 6
    Продолжительность : 1 ч. 27 м.
    Вид битрейта : Постоянный
    Битрейт : 192 Кбит/сек
    Каналы : 2 канала
    Расположение каналов : Front: L R
    Частота : 48,0 КГц
    Битовая глубина : 16 бит
    Метод сжатия : С потерями
    Задержка видео : -308 мс.
    Размер потока : 120 Мбайт (5%)
    Язык : Russian

    Меню
    Идентификатор : 102 (0x66)
    Идентификатор меню : 10103 (0x2777)
    Продолжительность : 1 ч. 27 м.
    Список : 322 (0x142) (MPEG Video) / 405 (0x195) (MPEG Audio, Russian) / 435 (0x1B3) (AC-3, Russian)
    Язык : / Russian / Russian

    Общее
    Идентификатор : 1 (0x1)
    Полное имя : Baron.Mjunxgauzen.2012.DVB.MediaClubBaron.Mjunxgauzen.02.2012.DVB.MediaClub.ts
    Формат : MPEG-TS
    Размер файла : 2,28 Гбайт
    Продолжительность : 1 ч. 27 м.
    Режим общего битрейта : Переменный
    Общий поток : 3722 Кбит/сек

    Видео
    Идентификатор : 322 (0x142)
    Идентификатор меню : 10103 (0x2777)
    Формат : MPEG Video
    Версия формата : Version 2
    Профиль формата : Main@Main
    Параметр BVOP формата : Да
    Параметр матрицы формата : Выборочная
    Параметр GOP формата : Variable
    Идентификатор кодека : 2
    Продолжительность : 1 ч. 27 м.
    Вид битрейта : Переменный
    Битрейт : 3151 Кбит/сек
    Максимальный битрейт : 15,0 Мбит/сек
    Ширина : 720 пикселей
    Высота : 576 пикселей
    Соотношение сторон : 16:9
    Частота кадров : 25,000 кадров/сек
    Стандарт вещания : PAL
    Цветовое пространство : YUV
    Субдискретизация насыщенности : 4:2:0
    Битовая глубина : 8 бит
    Тип развёртки : Чересстрочная
    Порядок развёртки : Верхнее поле первое
    Метод сжатия : С потерями
    Бит/(Пиксели*Кадры) : 0.304
    Размер потока : 1,93 Гбайт (85%)

    Аудио #1
    Идентификатор : 405 (0x195)
    Идентификатор меню : 10103 (0x2777)
    Формат : MPEG Audio
    Версия формата : Version 1
    Профиль формата : Layer 2
    Идентификатор кодека : 4
    Продолжительность : 1 ч. 27 м.
    Вид битрейта : Постоянный
    Битрейт : 192 Кбит/сек
    Каналы : 2 канала
    Частота : 48,0 КГц
    Метод сжатия : С потерями
    Задержка видео : -196 мс.
    Размер потока : 120 Мбайт (5%)
    Язык : Russian
    Язык, дополнительно : Clean effects

    Аудио #2
    Идентификатор : 435 (0x1B3)
    Идентификатор меню : 10103 (0x2777)
    Формат : AC-3
    Формат/Информация : Audio Coding 3
    Расширение режима : CM (complete main)
    Параметр Endianness формата : Big
    Идентификатор кодека : 6
    Продолжительность : 1 ч. 27 м.
    Вид битрейта : Постоянный
    Битрейт : 192 Кбит/сек
    Каналы : 2 канала
    Расположение каналов : Front: L R
    Частота : 48,0 КГц
    Битовая глубина : 16 бит
    Метод сжатия : С потерями
    Задержка видео : -268 мс.
    Размер потока : 120 Мбайт (5%)
    Язык : Russian

    Меню
    Идентификатор : 102 (0x66)
    Идентификатор меню : 10103 (0x2777)
    Продолжительность : 1 ч. 27 м.
    Список : 322 (0x142) (MPEG Video) / 405 (0x195) (MPEG Audio, Russian) / 435 (0x1B3) (AC-3, Russian)
    Язык : / Russian / Russian


    Релиз подготовил:
    Залил: poja
    Размер скачиваемого торрента: 4.60 GB (4935952220 Bytes)

    Барон Мюнхгаузен / Baron Munchhausen (2012) DVB от MediaClub | D торрент скачать бесплатно
    загрузка...
    Рейтинг →
     (голосов: 1, оценка 3/5, голосовать можно 1 раз )

    Другие торренты по теме:

  • Барон Мюнхгаузен / Baron Munchhausen / Baron on the Cannonball (2012) HDRip | D скачать через торрент бесплатно
  • Барон Мюнхгаузен / Baron Prásil (Baron Prášil) / 1962 / ДБ, ЛО / DVDRip


    • Комментарии (0):

      Информация

      Информация

        Посетители, находящиеся в группе Гости, не могут оставлять комментарии в данной новости.

        ↓ Меню



        ↓ Опрос

        А Вы добавили сайт в закладки?
        Да
        Не


        Top 10 за месяц (Фильмы)