.
Авторизация | Регистрация
Хочешь лучшие торренты? Добавь свой email!
Добавить
» » Мамочка-маньячка-убийца / Serial Mom (1994) BDRip-AVC | iPad | P скачать торрент бесплатно




    Мамочка-маньячка-убийца / Serial Mom (1994) BDRip-AVC | iPad | P скачать торрент бесплатно

    Опубликовал: Админ | Дата: 27-02-2015, 11:10 | Просмотров: 214



    Мамочка-маньячка-убийца / Serial Mom (1994) BDRip-AVC | iPad | P
    She;s a fabulous, loving, caring mother, who er... ...happens to be a serial killer!

    Русское название: Мамочка-маньячка-убийца
    Русское название в мировом прокате: Serial Mom
    Создали в: 1994
    Категория жанра: триллер, комедия, криминал
    Главный режиссер: Джон Уотерс
    Актеры: Кэтлин Тёрнер, Сэм Уотерстон, Рики Лейк, Мэттью Лиллард, Скотт Морган, Уолт Макферсон, Джастин Уэйлин, Патриция Даннок, Лонни Хорси, Минк Стоул

    Сюжет фильма:
    Типичная американская семья - как в рекламе. Большой дом в Балтиморе. Мамочка-домохозяйка: милая, любящая и настолько безупречная, что того и гляди запоет. Да, вот еще: когда детишки уходят в школу а муж на работу, она... убивает.
    С выбором очередной жертвы проблем нет: достаточно отдать предпочтение другой девочке поприятней чем ее дочурка, накричать на ее сына, надеть белые тапочки в День труда, не перемотать пленку на начало видеокассеты и ваши дни сочтены. И уж будьте уверены, разделается она с вами самым изощренным способом.




    Снималось в: США
    Киностудия: Polar Entertainment Corporation

    Время просмотра: 1:33:46
    Перевод текста: Русский профессиональный закадровый многоголосый

    Файл
    Кодек для видео: H.264
    Качество фильма: BDRip 576p
    Информация о видео: 1024x552 (1.85:1) at 23.976 fps, AVC at 4300 kbps
    Информация о звуке:
    1: АAС 2.0 128 kbps - Русский профессиональный закадровый многоголосый
    Субтитры: отсутствуют

    MI

    General
    Complete name : I:modoutSerial.Mom.1994.576p.P.m4v
    Format : MPEG-4
    Codec ID : M4V
    File size : 2.91 GiB
    Duration : 1h 33mn
    Overall bit rate mode : Variable
    Overall bit rate : 4 444 Kbps
    Movie name : Мамочка-маньячка
    Performer : John Waters
    Genre : Comedy
    ContentType : Short Film
    Deion : Типичная американская семья — как в рекламе. Большой дом в Балтиморе. Мамочка-домохозяйка: милая, любящая и настолько безупречная, что того и гляди запоет. Да, вот еще: когда детишки уходят в школу а муж на работу, она… убивает.
    Recorded date : UTC 1994-04-13 08:00:00
    Encoded date : UTC 2014-05-29 13:01:55
    Tagged date : UTC 2014-05-29 13:18:23
    Copyright : Polar Entertainment Corporation
    Cover : Yes
    Comment : She;s a fabulous, loving, caring mother, who er... ...happens to be a serial killer!
    ContentRating : mpaa|R|400|

    Title/Sort : Serial Mom
    LongDeion : Типичная американская семья — как в рекламе. Большой дом в Балтиморе. Мамочка-домохозяйка: милая, любящая и настолько безупречная, что того и гляди запоет. Да, вот еще: когда детишки уходят в школу а муж на работу, она… убивает. С выбором очередной жертвы проблем нет - достаточно кому-то нарушить устоявшиеся жизненные правила.
    AppleStoreCatalogID : 21105
    Vendor : Apple:vendor_id:1994-21105

    Video
    ID : 1
    Format : AVC
    Format/Info : Advanced Video Codec
    Format profile : High@L4.1
    Format settings, CABAC : Yes
    Format settings, ReFrames : 12 frames
    Codec ID : avc1
    Codec ID/Info : Advanced Video Coding
    Duration : 1h 33mn
    Bit rate : 4 300 Kbps
    Maximum bit rate : 12.1 Mbps
    Width : 1 024 pixels
    Height : 552 pixels
    Display aspect ratio : 1.85:1
    Frame rate mode : Constant
    Frame rate : 23.976 fps
    Color space : YUV
    Chroma subsampling : 4:2:0
    Bit depth : 8 bits
    Scan type : Progressive
    Bits/(Pixel*Frame) : 0.317
    Stream size : 2.82 GiB (97%)
    Writing library : x264 core 142 r2409 d6b4e63
    Encoding settings : cabac=1 / ref=12 / deblock=1:-3:-3 / analyse=0x3:0x133 / me=umh / subme=11 / psy=1 / psy_rd=1.00:0.15 / mixed_ref=1 / me_range=48 / chroma_me=1 / trellis=2 / 8x8dct=1 / cqm=0 / deadzone=21,11 / fast_pskip=0 / chroma_qp_offset=-3 / threads=18 / lookahead_threads=4 / sliced_threads=0 / nr=0 / decimate=0 / interlaced=0 / bluray_compat=0 / constrained_intra=0 / bframes=14 / b_pyramid=2 / b_adapt=2 / b_bias=0 / direct=3 / weightb=1 / open_gop=0 / weightp=2 / keyint=250 / keyint_min=23 / scenecut=40 / intra_refresh=0 / rc_lookahead=60 / rc=crf / mbtree=1 / crf=18.0 / qcomp=0.65 / qpmin=0 / qpmax=69 / qpstep=4 / ip_ratio=1.40 / aq=1:0.90
    Language : English
    Encoded date : UTC 2014-05-29 13:01:55
    Tagged date : UTC 2014-05-29 13:02:07

    Audio
    ID : 2
    Format : AAC
    Format/Info : Advanced Audio Codec
    Format profile : LC
    Codec ID : 40
    Duration : 1h 33mn
    Bit rate mode : Variable
    Bit rate : 128 Kbps
    Maximum bit rate : 150 Kbps
    Channel(s) : 2 channels
    Channel positions : Front: L R
    Sampling rate : 48.0 KHz
    Compression mode : Lossy
    Stream size : 85.6 MiB (3%)
    Language : English
    Encoded date : UTC 2014-05-29 13:02:05
    Tagged date : UTC 2014-05-29 13:02:07

    Menu
    ID : 3
    Codec ID : text
    Duration : 1h 33mn
    Encoded date : UTC 2014-05-29 13:02:20
    Tagged date : UTC 2014-05-29 13:02:20
    Bit rate mode : CBR

    x264

    x264 info: frame I:1299 Avg QP:15.50 size:146245
    x264 info: frame P:30714 Avg QP:19.21 size: 51050
    x264 info: frame B:102891 Avg QP:21.39 size: 12310
    x264 info: consecutive B-frames: 2.6% 3.3% 11.2% 17.8% 21.1% 36.2% 5.1% 1.3% 0.8% 0.4% 0.1% 0.1% 0.0% 0.0% 0.0%
    x264 info: mb I I16..4: 27.2% 45.0% 27.8%
    x264 info: mb P I16..4: 0.6% 12.6% 1.9% P16..4: 23.8% 34.6% 19.0% 5.6% 1.0% skip: 0.9%
    x264 info: mb B I16..4: 0.0% 1.6% 0.1% B16..8: 36.1% 20.0% 5.0% direct: 8.3% skip:28.9% L0:37.6% L1:44.0% BI:18.5%
    x264 info: 8x8 transform intra:78.6% inter:44.2%
    x264 info: direct mvs spatial:100.0% temporal:0.0%
    x264 info: coded y,uvDC,uvAC intra: 98.7% 63.5% 37.1% inter: 35.2% 13.3% 4.5%
    x264 info: i16 v,h,dc,p: 4% 4% 47% 45%
    x264 info: i8 v,h,dc,ddl,ddr,vr,hd,vl,hu: 12% 8% 12% 10% 12% 12% 11% 11% 11%
    x264 info: i4 v,h,dc,ddl,ddr,vr,hd,vl,hu: 14% 8% 6% 9% 14% 14% 12% 12% 11%
    x264 info: i8c dc,h,v,p: 32% 31% 21% 16%
    x264 info: Weighted P-Frames: Y:5.2% UV:2.3%
    x264 info: ref P L0: 43.1% 11.8% 18.4% 5.3% 5.9% 3.4% 4.0% 1.7% 2.1% 1.3% 1.6% 1.2% 0.3% 0.0%
    x264 info: ref B L0: 86.1% 6.8% 2.3% 1.3% 0.9% 0.8% 0.6% 0.4% 0.3% 0.2% 0.1%
    x264 info: ref B L1: 96.5% 3.5%
    x264 info: kb/s:4300.22
    iTunes Tags


    Sort Name: Serial Mom
    XID: Apple:vendor_id:1994-21105
    Content ID: 21105
    Copyright: Polar Entertainment Corporation
    ScreenWriters: Джон Уотерс
    Producers: Джон Фидлер, Марк Тарлов, Джозеф М. Карачиоло мл.
    Director: Джон Уотерс
    Cast: Кэтлин Тёрнер, Сэм Уотерстон, Рики Лейк, Мэттью Лиллард, Скотт Морган, Уолт Макферсон, Джастин Уэйлин, Патриция Даннок, Лонни Хорси, Минк Стоул // Kathleen Turner (Beverly Sutphin), Sam Waterston (Eugene Sutphin), Ricki Lake (Misty Sutphin), Matthew Lillard (Chip Sutphin), Mink Stole (Dottie Hinkle), Traci Lords (Carl;s Date), Suzanne Somers (Herself)
    Rating: R
    Long Deion: Типичная американская семья — как в рекламе. Большой дом в Балтиморе. Мамочка-домохозяйка: милая, любящая и настолько безупречная, что того и гляди запоет. Да, вот еще: когда детишки уходят в школу а муж на работу, она… убивает. С выбором очередной жертвы проблем нет - достаточно кому-то нарушить устоявшиеся жизненные правила.
    Deion: Типичная американская семья — как в рекламе. Большой дом в Балтиморе. Мамочка-домохозяйка: милая, любящая и настолько безупречная, что того и гляди запоет. Да, вот еще: когда детишки уходят в школу а муж на работу, она… убивает.
    Release Date: 1994-04-13T08:00:00Z
    Genre: Comedy
    Artist: John Waters
    Name: Мамочка-маньячка
    Comments: She;s a fabulous, loving, caring mother, who er... ...happens to be a serial killer!






    Залил: gekka
    Размер скачиваемого торрента: 2.91 GB (3125292907 Bytes)

    Мамочка-маньячка-убийца / Serial Mom (1994) BDRip-AVC | iPad | P торрент скачать бесплатно
    загрузка...
    Рейтинг →
     (голосов: 1, оценка 4/5, голосовать можно 1 раз )

    Другие торренты по теме:

  • Мамочка-маньячка-убийца / Serial Mom (1994) BDRip 1080p от MediaClub | P
  • Мамочка-маньячка-убийца / Serial Mom (1994) BDRip 720p | P скачать через торрент бесплатно
  • Мамочка-маньячка-убийца / Serial Mom (1994) BDRip 720p от HDClub | P, P2, A


    • Комментарии (0):

      Информация

      Информация

        Посетители, находящиеся в группе Гости, не могут оставлять комментарии в данной новости.

        ↓ Меню



        ↓ Опрос

        А Вы добавили сайт в закладки?
        Да
        Не


        Top 10 за месяц (Фильмы)