.
Авторизация | Регистрация
Хочешь лучшие торренты? Добавь свой email!
Добавить
» » Охотники за сокровищами / The Monuments Men (2014) BDRemux 1080р от ExKinoRay | Лицензия скачать торрент бесплатно




    Охотники за сокровищами / The Monuments Men (2014) BDRemux 1080р от ExKinoRay | Лицензия скачать торрент бесплатно

    Опубликовал: Админ | Дата: 27-02-2015, 11:10 | Просмотров: 140



    Детально о кино

    Русское название: Охотники за сокровищами
    Русское название в мировом прокате: The Monuments Men
    Создали в: 2014
    Категория жанра: Боевик, драма, военный, биография, реальные события
    Снималось в: США, Германия, Columbia Pictures, Fox 2000 Pictures, Smokehouse Pictures
    Главный режиссер: Джордж Клуни
    Актеры: Джордж Клуни, Мэтт Дэймон, Билл Мюррэй, Джон Гудмен, Жан Дюжарден, Боб Бэлабан, Хью Бонневилль, Кейт Бланшетт, Димитрий Леонидас, Юстус фон Донаньи


    Сюжет фильма: Фильм основан на реальных событиях — величайшей охоте на сокровища в истории. Во время Второй мировой войны команда из искусствоведов и хранителей музеев объединяется, чтобы спасти известные произведения искусства, похищенные нацистами, прежде чем те успеют их уничтожить.





    Файл

    Качество фильма: Blu-Ray Remux (1080p)
    Информация о видео: MPEG-4 AVC, 24339 Кбит/с, 1920x1080, 23.976 кадр/с
    Информация о звуке: Русский (AC3, 6 ch, 448 Кбит/с), (DTS, 6 ch, 768 Кбит/с), английский (DTS-HD MA, 6 ch, 2913 Кбит/с)
    Размер скачиваемого торрента: 24.01 ГБ
    Время просмотра: 01:58:23
    Перевод текста: Дублированный
    Субтитры: Русские, английские



    Сохранены оригинальные чаптеры как на Blu-Ray.
    Озвучивание - дублированное (Лицензия BD-СЕЕ)


    Инфо-файл

    Общее
    Уникальный идентификатор : 231303062876669609978828614043225916164 (0xAE035978FB030B26940D728A3A098304)
    Полное имя : D:ЗагрузкиThe.Monuments.Men.2013.BDRemux.1080p.ExKinoRay.mkv
    Формат : Matroska
    Версия формата : Version 2
    Размер файла : 24,0 Гбайт
    Продолжительность : 1 ч. 58 м.
    Режим общего битрейта : Переменный
    Общий поток : 29,0 Мбит/сек
    Название фильма : Охотники за сокровищами.2014.Сборкa: ollan
    Дата кодирования : UTC 2014-05-29 21:42:56
    Программа кодирования : mkvmerge v5.6.0 (;Kenya Kane;) built on May 27 2012 16:44:04
    Библиотека кодирования : libebml v1.2.3 + libmatroska v1.3.0

    Видео
    Идентификатор : 1
    Формат : AVC
    Формат/Информация : Advanced Video Codec
    Профиль формата : High@L4.1
    Параметр CABAC формата : Да
    Параметр ReFrames формата : 2 кадра
    Идентификатор кодека : V_MPEG4/ISO/AVC
    Продолжительность : 1 ч. 58 м.
    Вид битрейта : Переменный
    Ширина : 1920 пикселей
    Высота : 1080 пикселей
    Соотношение сторон : 16:9
    Режим частоты кадров : Постоянный
    Частота кадров : 23,976 кадра/сек
    Цветовое пространство : YUV
    Субдискретизация насыщенности : 4:2:0
    Битовая глубина : 8 бит
    Тип развёртки : Прогрессивная
    Default : Да
    Forced : Нет

    Аудио #1
    Идентификатор : 2
    Формат : AC-3
    Формат/Информация : Audio Coding 3
    Расширение режима : CM (complete main)
    Параметр Endianness формата : Big
    Идентификатор кодека : A_AC3
    Продолжительность : 1 ч. 58 м.
    Вид битрейта : Постоянный
    Битрейт : 448 Кбит/сек
    Каналы : 6 каналов
    Расположение каналов : Front: L C R, Side: L R, LFE
    Частота : 48,0 КГц
    Битовая глубина : 16 бит
    Метод сжатия : С потерями
    Размер потока : 379 Мбайт (2%)
    Заголовок : Дублированный (Лицензия)
    Язык : Russian
    Default : Да
    Forced : Нет

    Аудио #2
    Идентификатор : 3
    Формат : DTS
    Формат/Информация : Digital Theater Systems
    Режим : 16
    Параметр Endianness формата : Big
    Идентификатор кодека : A_DTS
    Продолжительность : 1 ч. 58 м.
    Вид битрейта : Постоянный
    Битрейт : 768 Кбит/сек
    Каналы : 6 каналов
    Расположение каналов : Front: L C R, Side: L R, LFE
    Частота : 48,0 КГц
    Битовая глубина : 24 бит
    Метод сжатия : С потерями
    Размер потока : 650 Мбайт (3%)
    Заголовок : Дублированный (Лицензия)
    Язык : Russian
    Default : Нет
    Forced : Нет

    Аудио #3
    Идентификатор : 4
    Формат : DTS
    Формат/Информация : Digital Theater Systems
    Профиль формата : MA / Core
    Режим : 16
    Параметр Endianness формата : Big
    Идентификатор кодека : A_DTS
    Продолжительность : 1 ч. 58 м.
    Вид битрейта : Переменный
    Битрейт : Неизвестно / 1509 Кбит/сек
    Каналы : 6 каналов
    Расположение каналов : Front: L C R, Side: L R, LFE
    Частота : 48,0 КГц
    Битовая глубина : 24 бит
    Метод сжатия : Без потерь / Lossy
    Язык : English
    Default : Нет
    Forced : Нет

    Текст #1
    Идентификатор : 5
    Формат : UTF-8
    Идентификатор кодека : S_TEXT/UTF8
    Идентификатор кодека/Информация : UTF-8 Plain Text
    Язык : Russian
    Default : Нет
    Forced : Нет

    Текст #2
    Идентификатор : 6
    Формат : UTF-8
    Идентификатор кодека : S_TEXT/UTF8
    Идентификатор кодека/Информация : UTF-8 Plain Text
    Заголовок : Forced
    Язык : English
    Default : Нет
    Forced : Нет

    Текст #3
    Идентификатор : 7
    Формат : UTF-8
    Идентификатор кодека : S_TEXT/UTF8
    Идентификатор кодека/Информация : UTF-8 Plain Text
    Заголовок : Full
    Язык : English
    Default : Нет
    Forced : Нет

    Текст #4
    Идентификатор : 8
    Формат : UTF-8
    Идентификатор кодека : S_TEXT/UTF8
    Идентификатор кодека/Информация : UTF-8 Plain Text
    Заголовок : SDH
    Язык : English
    Default : Нет
    Forced : Нет

    Меню
    00:00:00.000 : en:
    00:04:41.572 : en:
    00:16:01.961 : en:
    00:20:13.962 : en:
    00:23:37.457 : en:
    00:27:12.839 : en:
    00:31:36.811 : en:
    00:40:37.977 : en:
    00:50:40.579 : en:
    00:53:31.374 : en:
    00:59:36.447 : en:
    01:00:52.815 : en:
    01:17:06.913 : en:
    01:21:50.530 : en:
    01:33:08.332 : en:
    01:46:26.671 : en:


    Скриншоты для ознакомления







    Релиз подготовил: Сборка:
    Залил: ollan
    Размер скачиваемого торрента: 24.01 GB (25775346064 Bytes)

    Охотники за сокровищами / The Monuments Men (2014) BDRemux 1080р от ExKinoRay | Лицензия торрент скачать бесплатно
    загрузка...
    Рейтинг →
     (голосов: 1, оценка 5/5, голосовать можно 1 раз )

    Другие торренты по теме:

  • Охотники за привидениями. Битва за Москву (2017) WEBRip от Files-х
  • Охотники за трюками / StuntBusters (2011) SATRip Sauliux
  • Охотники за реликвией / Das Jesus Video (2002) DVDRip-AVC | P
  • Охотники за головами / Headhunters / Hodejegerne (2011) HDRip от Youtracker | D
  • Охотники за разумом / Mindhunters (2004) BDRip-AVC
  • Настоящие охотники за привидениями / The Real Ghost Busters (1986) DVDRip
  • Охотники за скальпами / The Scalphunters (1968) BDRip - AVC от Тorrent-Хzona
  • OST - Охотники за привидениями / Ghostbusters (1984, 1989) MP3


    • Комментарии (0):

      Информация

      Информация

        Посетители, находящиеся в группе Гости, не могут оставлять комментарии в данной новости.

        ↓ Меню



        ↓ Опрос

        А Вы добавили сайт в закладки?
        Да
        Не


        Top 10 за месяц (Фильмы)