.
Авторизация | Регистрация
Хочешь лучшие торренты? Добавь свой email!
Добавить
» » Росселла / Rossella (2011) SATRip | SET скачать через торрент бесплатно




    Росселла / Rossella (2011) SATRip | SET скачать через торрент бесплатно

    Опубликовал: Админ | Дата: 27-02-2015, 11:10 | Просмотров: 566



    Детально о кино
    Русское название: Росселла
    Русское название в мировом прокате: Rossella
    Создали в: 2011
    Категория жанра: драма, мелодрама
    Главный режиссер: Джанни Лепре, Кармине Элиа
    Актеры: Тони Берторелли, Danilo Brugia, Франческа Каваллин, Джованни Гуиделли, Анна Мелато, Габриэлла Пессион, Тереза Сапонанджело, Фабио Сартор, Джузеппе Зено

    Сюжет фильма:
    Действие фильма разворачивается в Генуе в конце XIX — в начале XX веков. Главная героиня — Росселла Андрэй, красивая молодая девушка из богатой семьи, принадлежащей к высшему обществу Генуи. Романтическая, мятежная, полная любопытства к миру, она живет со своим отцом Пьетро, владельцем машиностроительного завода, и сестрой Паолиной. Мать, Олимпия, умерла при загадочных обстоятельствах, когда девушка была еще ребенком.

    Росселла тайно влюбляеться в амбициозного, страстного и бедного журналиста Джулиано Саллустио. И когда наследник семьи немецких промышленников попросил ее руки, Росселла отказывается, раскрывает свою любовь к Джулиано, заявляет о своей свободе, ссориться с отцом. Наконец решает сбежать с любимым человеком. Но на самом ли деле Джулиано тот человек, каким она его считает, или Росселла, из-за слишком большой любви и своей наивности, ошибаеться по поводу его истинной натуры?



    Снималось в: Италия
    Киностудия: Rai Uno
    Время просмотра: ~ 00:56:00 серия
    Перевод текста: Профессиональный (многоголосый закадровый) SET

    Файл
    Кодек для видео: XviD / MP3
    Качество фильма: SATRip
    Информация о видео: MPEG4, XviD, 656x368 (16:9), 25.000 fps, 1 234 Kbps (0.205 bit/pixel)
    Информация о звуке: MP3, 48.0 KHz, 2 ch, 128 Kbps, CBR

    Скриншоты для ознакомления
    Screenshots
    MediaInfo
    General
    Complete name : /Розелла (Сезон 1) SET/rossella.s01e01.satrip.avi
    Format : AVI
    Format/Info : Audio Video Interleave
    File size : 490 MiB
    Duration : 49mn 56s
    Overall bit rate : 1 372 Kbps
    Writing application : VirtualDubMod 1.5.10.3 | www.virtualdub-fr.org || (build 2550/release)
    Writing library : VirtualDub build 30009/release

    Video
    ID : 0
    Format : MPEG-4 Visual
    Format profile : Advanced Simple@L5
    Format settings, BVOP : 1
    Format settings, QPel : No
    Format settings, GMC : No warppoints
    Format settings, Matrix : Default (H.263)
    Codec ID : XVID
    Codec ID/Hint : XviD
    Duration : 49mn 56s
    Bit rate : 1 234 Kbps
    Width : 656 pixels
    Height : 368 pixels
    Display aspect ratio : 16:9
    Frame rate : 25.000 fps
    Color space : YUV
    Chroma subsampling : 4:2:0
    Bit depth : 8 bits
    Scan type : Progressive
    Compression mode : Lossy
    Bits/(Pixel*Frame) : 0.205
    Stream size : 441 MiB (90%)
    Writing library : XviD 63

    Audio
    ID : 1
    Format : MPEG Audio
    Format version : Version 1
    Format profile : Layer 3
    Mode : Joint stereo
    Mode extension : MS Stereo
    Codec ID : 55
    Codec ID/Hint : MP3
    Duration : 49mn 56s
    Bit rate mode : Constant
    Bit rate : 128 Kbps
    Channel(s) : 2 channels
    Sampling rate : 48.0 KHz
    Compression mode : Lossy
    Stream size : 45.7 MiB (9%)
    Alignment : Aligned on interleaves
    Interleave, duration : 40 ms (1.00 video frame)
    Interleave, preload duration : 504 ms
    Writing library : LAME

    Размер скачиваемого торрента: 6.72 GB (7214618886 Bytes)

    Росселла / Rossella (2011) SATRip | SET скачать через торрент бесплатно
    загрузка...
    Рейтинг →
     (голосов: 1, оценка 5/5, голосовать можно 1 раз )

    Другие торренты по теме:

  • Росселла / Rossella (2011) SATRip | SET скачать через торрент бесплатно


    • Комментарии (0):

      Информация

      Информация

        Посетители, находящиеся в группе Гости, не могут оставлять комментарии в данной новости.

        ↓ Меню



        ↓ Опрос

        А Вы добавили сайт в закладки?
        Да
        Не


        Top 10 за месяц (Фильмы)