.
Авторизация | Регистрация
Хочешь лучшие торренты? Добавь свой email!
Добавить
» » Карты, деньги, два ствола / Lock, Stock and Two Smoking Barrels (1998) DVD9 | P | Коллекционное издание скачать через торрент бесплатно




    Карты, деньги, два ствола / Lock, Stock and Two Smoking Barrels (1998) DVD9 | P | Коллекционное издание скачать через торрент бесплатно

    Опубликовал: Админ | Дата: 27-02-2015, 11:10 | Просмотров: 198



    Детально о кино
    Русское название: Карты, деньги, два ствола
    Русское название в мировом прокате: Lock, Stock and Two Smoking Barrels
    Создали в: 1998
    Категория жанра: комедия, криминал
    Главный режиссер: Гай Ричи
    Актеры: Джейсон Стэйтем, Ник Моран, Джейсон Флеминг, Декстер Флетчер, Винни Джонс, Ленни МакЛин, П.Х. Мориарти, Вэс Блэквуд, Стинг, Фрэнк Харпер

    Сюжет фильма:
    Четверо молодых парней накопили каждый по 25 тысяч фунтов, чтобы один из них мог сыграть в карты с опытным шулером и матерым преступником, известным по кличке Гарри-Топор. Парень в итоге проиграл 500 тысяч, на уплату долга ему дали неделю.

    В противном случае и ему и его спонсорам каждый день будут отрубать по пальцу, а потом… Чтобы выйти из положения, ребята решили ограбить бандитов, решивших ограбить трех ботаников, выращивающих марихуану для местного наркобарона. Но на этом приключения четверки не заканчиваются…




    Снималось в: Великобритания
    Киностудия: Handmade Films Ltd., PolyGram Filmed Entertainment, SKA Films, Summit Entertainment
    Время просмотра: 107 мин. / 01:47
    Перевод текста 1: профессиональный (многоголосый, закадровый)
    Перевод текста 2: профессиональный (многоголосый, закадровый) fuck-версия

    Файл
    Кодек для видео: MPEG2
    Качество фильма: 2 х DVD9
    Информация о видео: PAL 16:9 (720x576@1024x576) VBR 5986 Kbps, 25.000 fps
    Информация о звуке 1: Dolby AC3, 6 ch, 48.0 KHz, 448 Kbps русский, английский
    Информация о звуке 2: DTS 6 ch, 48.0 KHz, 755 Kbps русский
    Субтитры: русские

    Коллекционное издание из 2 дисков от NeoClassica
    MediaInfo
    General
    Complete name : E:LOCK_STOCKDISC_1VIDEO_TSVTS_04_1.VOB
    Format : MPEG-PS
    File size : 1 024 MiB
    Duration : 17mn 21s
    Overall bit rate mode : Variable
    Overall bit rate : 8 248 Kbps

    Video
    ID : 224 (0xE0)
    Format : MPEG Video
    Format version : Version 2
    Format profile : Main@Main
    Format settings, BVOP : No
    Format settings, Matrix : Custom
    Format settings, GOP : Variable
    Duration : 17mn 21s
    Bit rate mode : Variable
    Bit rate : 5 986 Kbps
    Maximum bit rate : 9 000 Kbps
    Width : 720 pixels
    Height : 576 pixels
    Display aspect ratio : 16:9
    Frame rate : 25.000 fps
    Standard : PAL
    Color space : YUV
    Chroma subsampling : 4:2:0
    Bit depth : 8 bits
    Scan type : Interlaced
    Scan order : Top Field First
    Compression mode : Lossy
    Bits/(Pixel*Frame) : 0.577
    Time code of first frame : 00:00:00:00
    Time code source : Group of pictures t_head
    Stream size : 743 MiB (73%)

    Audio #1
    ID : 189 (0xBD)-128 (0x80)
    Format : AC-3
    Format/Info : Audio Coding 3
    Mode extension : CM (complete main)
    Format settings, Endianness : Big
    Muxing mode : DVD-Video
    Duration : 17mn 21s
    Bit rate mode : Constant
    Bit rate : 448 Kbps
    Channel(s) : 6 channels
    Channel positions : Front: L C R, Side: L R, LFE
    Sampling rate : 48.0 KHz
    Bit depth : 16 bits
    Compression mode : Lossy
    Stream size : 55.6 MiB (5%)

    Audio #2
    ID : 189 (0xBD)-130 (0x82)
    Format : AC-3
    Format/Info : Audio Coding 3
    Mode extension : CM (complete main)
    Format settings, Endianness : Big
    Muxing mode : DVD-Video
    Duration : 17mn 21s
    Bit rate mode : Constant
    Bit rate : 448 Kbps
    Channel(s) : 6 channels
    Channel positions : Front: L C R, Side: L R, LFE
    Sampling rate : 48.0 KHz
    Bit depth : 16 bits
    Compression mode : Lossy
    Stream size : 55.6 MiB (5%)

    Audio #3
    ID : 189 (0xBD)-131 (0x83)
    Format : AC-3
    Format/Info : Audio Coding 3
    Mode extension : CM (complete main)
    Format settings, Endianness : Big
    Muxing mode : DVD-Video
    Duration : 17mn 21s
    Bit rate mode : Constant
    Bit rate : 448 Kbps
    Channel(s) : 6 channels
    Channel positions : Front: L C R, Side: L R, LFE
    Sampling rate : 48.0 KHz
    Bit depth : 16 bits
    Compression mode : Lossy
    Stream size : 55.6 MiB (5%)

    Audio #4
    ID : 189 (0xBD)-137 (0x89)
    Format : DTS
    Format/Info : Digital Theater Systems
    Mode : 16
    Format settings, Endianness : Big
    Muxing mode : DVD-Video
    Duration : 17mn 21s
    Bit rate mode : Constant
    Bit rate : 755 Kbps
    Channel(s) : 6 channels
    Channel positions : Front: L C R, Side: L R, LFE
    Sampling rate : 48.0 KHz
    Bit depth : 24 bits
    Compression mode : Lossy
    Stream size : 93.6 MiB (9%)

    Text
    ID : 189 (0xBD)-32 (0x20)
    Format : RLE
    Format/Info : Run-length encoding
    Muxing mode : DVD-Video

    Menu

    Скриншоты для ознакомления

    Залил: carisha
    Размер скачиваемого торрента: 11.69 GB (12551882545 Bytes)

    Карты, деньги, два ствола / Lock, Stock and Two Smoking Barrels (1998) DVD9 | P | Коллекционное издание скачать через торрент бесплатно
    загрузка...
    Рейтинг →
     (голосов: 1, оценка 3/5, голосовать можно 1 раз )

    Другие торренты по теме:

  • OST - Карты, деньги, два ствола / Lock, Stock and Two Smoking Barrels (1998) MP3
  • Карты, деньги, два ствола / Lock, Stock and Two Smoking Barrels (1998) BDRip 1080p от NoLimits-Team
  • Карты, деньги, два ствола / Lock, Stock and Two Smoking Barrels (1998) BDRip-AVC от FireBit-Films NoLimits-Team
  • Карты, деньги и два ствола / Lock, Stock and Two Smoking Barrels (1998) BDRip-AVC | iPhone | P1 скачать через торрент бесплатно
  • Карты, деньги, два ствола / Lock, Stock and Two Smoking Barrels (1998) BDRip 1080p
  • Карты, деньги и два ствола / Lock, Stock and Two Smoking Barrels (1998) BDRip от HQCLUB
  • Карты, деньги, два ствола / Lock, Stock and Two Smoking Barrels (1998) BDRip | КПК | P, A
  • Карты, деньги, два ствола / Lock, Stock and Two Smoking Barrels (1998)


    • Комментарии (0):

      Информация

      Информация

        Посетители, находящиеся в группе Гости, не могут оставлять комментарии в данной новости.

        ↓ Меню



        ↓ Опрос

        А Вы добавили сайт в закладки?
        Да
        Не


        Top 10 за месяц (Фильмы)