.
Авторизация | Регистрация
Хочешь лучшие торренты? Добавь свой email!
Добавить
» » Уик-энд в Париже / Le Week-End (2013) HDRip от New-Team | P | лицензия скачать через торрент бесплатно




    Уик-энд в Париже / Le Week-End (2013) HDRip от New-Team | P | лицензия скачать через торрент бесплатно

    Опубликовал: Админ | Дата: 27-02-2015, 11:10 | Просмотров: 202



    Снималось в: Великобритания, Франция / Film4, Free Range Films, Le Bureau

    Категория жанра: комедия, мелодрама
    Создали в: 2013
    Время просмотра: 01:33:05
    Перевод текста: Профессиональный (многоголосый закадровый)
    Субтитры подготовлены: нет
    Оригинальная аудиодорожка: нет

    Главный режиссер: Роджер Мишелл / Roger Michell

    Актеры: Джим Бродбент, Линдси Дункан, Джефф Голдблюм, Igor Gotesman, Olivier Audibert, Софи-Шарлотт Юссон, Etienne Dalibert, Морисетт Лоренс, Gabriel Mailhebiau, Violaine Baccon...

    Сюжет: Супружеская пара спустя многие годы после медового месяца возвращается в Париж в попытке освежить брак. В столице Франции они встретят старого приятеля, которому удастся вдохнуть в охладевшие отношения новую жизнь.



    Качество фильма: HDRip / ams-le.week-end-720p + DVD9 R5 от Megogo
    Тип видео: AVI

    Информация о видео: 720x304 (2.35:1), 24.000 fps, XViD ~ 1790 kbps avg, 0.341 bit/pixel
    Информация о звуке: 48 kHz, Dolby AC3, 6 ch, 448 kbps, русский

    Раздача от:
    MediaInfo

    Общее
    Полное имя : Uik-end.v.Parije.2014.P.HDRip_New-Team_by_avproh.avi
    Формат : AVI
    Формат/Информация : Audio Video Interleave
    Размер файла : 1,46 Гбайт
    Продолжительность : 1 ч. 33 м.
    Общий поток : 2247 Кбит/сек
    Программа кодирования : VirtualDubModRus 1.5.10.2 (build 2542/release)
    Библиотека кодирования : VirtualDubMod build 2542/release

    Видео
    Идентификатор : 0
    Формат : MPEG-4 Visual
    Профиль формата : Advanced Simple@L5
    Параметр BVOP формата : 1
    Параметр QPel формата : Нет
    Параметр GMC формата : Без точки перехода
    Параметр матрицы формата : Выборочная
    Идентификатор кодека : XVID
    Идентификатор кодека/Подсказка : XviD
    Продолжительность : 1 ч. 33 м.
    Битрейт : 1790 Кбит/сек
    Ширина : 720 пикселей
    Высота : 304 пикселя
    Соотношение сторон : 2,35:1
    Частота кадров : 24,000 кадра/сек
    Цветовое пространство : YUV
    Субдискретизация насыщенности : 4:2:0
    Битовая глубина : 8 бит
    Тип развёртки : Прогрессивная
    Метод сжатия : С потерями
    Бит/(Пиксели*Кадры) : 0.341
    Размер потока : 1,16 Гбайт (80%)
    Библиотека кодирования : XviD 73

    Аудио
    Идентификатор : 1
    Формат : AC-3
    Формат/Информация : Audio Coding 3
    Расширение режима : CM (complete main)
    Параметр Endianness формата : Big
    Идентификатор кодека : 2000
    Продолжительность : 1 ч. 33 м.
    Вид битрейта : Постоянный
    Битрейт : 448 Кбит/сек
    Каналы : 6 каналов
    Расположение каналов : Front: L C R, Side: L R, LFE
    Частота : 48,0 КГц
    Битовая глубина : 16 бит
    Метод сжатия : С потерями
    Размер потока : 298 Мбайт (20%)
    Выравнивание : Разделение по промежуткам
    Продолжительность промежутка : 42 мс. (1,00 видеокадр)
    Время предзагрузки промежутка : 500 мс.

    Скриншоты для ознакомления:



    Размер скачиваемого торрента: 1.46 GB (1568962560 Bytes)

    Уик-энд в Париже / Le Week-End (2013) HDRip от New-Team | P | лицензия скачать через торрент бесплатно
    загрузка...
    Рейтинг →
     (голосов: 1, оценка 3/5, голосовать можно 1 раз )

    Другие торренты по теме:

  • Уик-энд в Гаване / Week-End in Havana (1941) DVDRip от egoleshik
  • Уик-энд в Париже / Le Week-End (2013) BDRip 1080p от CINEMANIA | P скачать через торрент бесплатно
  • Уик-энд в Париже / Le Week-End (2013) BDRip 720p от CINEMANIA | P скачать через торрент бесплатно
  • Уик-энд в Париже / Le Week-End (2013) WEB-DLRip | P скачать через торрент бесплатно
  • Уик-энд в Париже / Le Week-End (2013) DVD5 R5 от New-Team | P | лицензия скачать через торрент бесплатно
  • Уик-энд в Париже / Le Week-End (2013) HDRip-AVC от New-Team | P | лицензия скачать через торрент бесплатно
  • Уик-энд в Париже / Le Week-End (2013) BDRip 1080p от New-Team | P | лицензия скачать через торрент бесплатно
  • Уик-энд в Париже / Le Week-End (2013) BDRip 720p от New-Team | P | лицензия скачать через торрент бесплатно


    • Комментарии (0):

      Информация

      Информация

        Посетители, находящиеся в группе Гости, не могут оставлять комментарии в данной новости.

        ↓ Меню



        ↓ Опрос

        А Вы добавили сайт в закладки?
        Да
        Не


        Top 10 за месяц (Фильмы)